<?xml version="1.0" standalone="no"?>
<!DOCTYPE svg PUBLIC "-//W3C//DTD SVG 1.1//EN" "http://www.w3.org/Graphics/SVG/1.1/DTD/svg11.dtd" >
<svg>
<metadata>
Created by FontForge 20090622 at Mon Jul 11 16:17:09 2016
 By deploy user
Copyright (c) 1996 Microsoft Corporation. All rights reserved.
</metadata>
<defs>
<font id="Trebuchet-BoldItalic" horiz-adv-x="1200" >
  <font-face 
    font-family="Trebuchet MS"
    font-weight="700"
    font-style="italic"
    font-stretch="normal"
    units-per-em="2048"
    panose-1="2 11 7 3 2 2 2 9 2 4"
    ascent="1638"
    descent="-410"
    x-height="1071"
    cap-height="1465"
    bbox="-152 -552 2207 1926"
    underline-thickness="200"
    underline-position="-161"
    slope="-10"
    unicode-range="U+0020-U+F007"
  />
<missing-glyph horiz-adv-x="1024" 
d="M128 350v768h768v-768h-768zM256 478h512v512h-512v-512z" />
    <glyph glyph-name=".notdef" horiz-adv-x="1024" 
d="M128 350v768h768v-768h-768zM256 478h512v512h-512v-512z" />
    <glyph glyph-name=".null" horiz-adv-x="0" 
 />
    <glyph glyph-name="nonmarkingreturn" horiz-adv-x="994" 
 />
    <glyph glyph-name="space" unicode=" " horiz-adv-x="617" 
 />
    <glyph glyph-name="exclam" unicode="!" horiz-adv-x="752" 
d="M442 424h-132l10 279q4 109 13.5 202.5t22.5 165.5l78 420h297l-57 -330q-13 -77 -103 -348zM163 141q0 68 49.5 114.5t117.5 46.5t117.5 -46.5t49.5 -114.5t-49 -114.5t-118 -46.5t-118 46.5t-49 114.5z" />
    <glyph glyph-name="quotedbl" unicode="&#x22;" horiz-adv-x="800" 
d="M773 1086h-200l52 381h260zM363 1086h-200l52 381h260z" />
    <glyph glyph-name="numbersign" unicode="#" 
d="M1174 910h-215l-84 -320h154v-181h-202l-120 -429h-195l118 429h-230l-118 -429h-195l118 429h-140v181h189l83 320h-157v181h205l108 396h193l-105 -396h229l108 396h193l-104 -396h167v-181zM769 910h-237l-84 -320h235z" />
    <glyph glyph-name="dollar" unicode="$" 
d="M1025 1180q-108 86 -236 86q-241 0 -241 -183q0 -81 128 -178q158 -119 220 -173.5t103.5 -141t41.5 -190.5q0 -181 -111 -290.5t-309 -134.5l-29 -156h-227l29 161q-134 21 -246 75l84 259q134 -102 311 -102q228 0 228 177q0 49 -31 97.5t-88.5 94.5l-244.5 190
q-128 125 -128 285q0 171 98 285.5t271 145.5l37 199h227l-36 -194q153 -11 229 -49z" />
    <glyph glyph-name="percent" unicode="%" horiz-adv-x="1500" 
d="M199 1027q0 195 109 329.5t285 134.5q250 0 250 -269q0 -187 -107.5 -320.5t-278.5 -133.5q-258 0 -258 259zM398 1058q0 -126 79 -126q82 0 126.5 83t44.5 200q0 112 -86 112q-75 0 -119.5 -81.5t-44.5 -187.5zM310 -20h-208l1190 1511h207zM770 240q0 196 109.5 329.5
t285.5 133.5q249 0 249 -269q0 -187 -107.5 -320.5t-278.5 -133.5q-258 0 -258 260zM969 271q0 -127 79 -127q82 0 126.5 83t44.5 201q0 111 -86 111q-76 0 -120 -82t-44 -186z" />
    <glyph glyph-name="ampersand" unicode="&#x26;" horiz-adv-x="1446" 
d="M1366 691h-250q-40 -178 -52.5 -254.5t-12.5 -141.5q0 -97 86 -97q69 0 177 78v-247q-101 -49 -253 -49q-124 0 -193 63q-157 -63 -337 -63q-186 0 -300 96.5t-114 266.5q0 287 229 487q-85 109 -85 216q0 209 143.5 327t380.5 118q180 0 283 -62l-65 -221
q-92 84 -213 84q-132 0 -208 -64.5t-76 -184.5q0 -81 64 -140h337l32 173l257 37l-41 -213h248zM512 691q-133 -138 -133 -307q0 -186 230 -186q114 0 184 36q0 45 10 99l66 358h-357z" />
    <glyph glyph-name="quotesingle" unicode="'" horiz-adv-x="617" 
d="M475 1086h-200l52 381h260z" />
    <glyph glyph-name="parenleft" unicode="(" horiz-adv-x="752" 
d="M495 -455q-356 264 -356 749q0 360 188 710t479 502v-150q-392 -414 -392 -1246q0 -230 81 -387v-178z" />
    <glyph glyph-name="parenright" unicode=")" horiz-adv-x="752" 
d="M-10 -455v179q182 138 296 505.5t114 705.5q0 251 -89 418v140q177 -75 271 -273t94 -468q0 -360 -188.5 -690.5t-497.5 -516.5z" />
    <glyph glyph-name="asterisk" unicode="*" horiz-adv-x="885" 
d="M782 1102l-133 -11l137 -78l86 -111l-193 -144l-84 122l-53 128l-50 -114l-111 -136l-172 154l119 115l110 57l-135 12l-156 62l98 205l158 -67l71 -76l-54 155v135h236v-131l-46 -162l100 89l141 62l82 -201z" />
    <glyph glyph-name="plus" unicode="+" 
d="M713 535v-355h-201v355h-348v201h348v343h201v-343h349v-201h-349z" />
    <glyph glyph-name="comma" unicode="," horiz-adv-x="752" 
d="M228 -414l-77 101q159 117 159 263q0 56 -58 101t-58 97q0 65 53 107t126 42q71 0 124 -58t53 -133q0 -302 -322 -520z" />
    <glyph glyph-name="hyphen" unicode="-" horiz-adv-x="752" 
d="M88 476l42 235h529l-42 -235h-529z" />
    <glyph glyph-name="hyphen" unicode="&#x2010;" horiz-adv-x="752" 
d="M88 476l42 235h529l-42 -235h-529z" />
    <glyph glyph-name="period" unicode="." horiz-adv-x="752" 
d="M204 139q0 66 46.5 112.5t112.5 46.5t112.5 -46.5t46.5 -112.5t-46.5 -112.5t-112.5 -46.5t-112.5 46.5t-46.5 112.5z" />
    <glyph glyph-name="slash" unicode="/" horiz-adv-x="813" 
d="M226 0h-236l556 1471h234z" />
    <glyph glyph-name="zero" unicode="0" 
d="M91 430q0 458 181 759.5t509 301.5q403 0 403 -435q0 -497 -173.5 -786.5t-509.5 -289.5q-195 0 -302.5 119.5t-107.5 330.5zM361 466q0 -257 156 -257q192 0 294 240t102 589q0 224 -166 224q-176 0 -281 -255.5t-105 -540.5z" />
    <glyph glyph-name="one" unicode="1" 
d="M701 0h-271l190 1024l-293 -143l40 265q356 158 486 325h120z" />
    <glyph glyph-name="two" unicode="2" 
d="M516 239h524l-45 -239h-952v84l582 683q137 161 162.5 199t43 84t17.5 86q0 133 -199 133q-123 0 -228 -150l-184 122q116 250 436 250q204 0 324 -89.5t120 -254.5q0 -100 -58.5 -210t-220.5 -307z" />
    <glyph glyph-name="three" unicode="3" 
d="M852 781q164 -89 164 -285q0 -516 -608 -516q-216 0 -356 150l130 225q114 -146 259 -146q136 0 221 76.5t85 203.5q0 180 -285 180l41 222q313 0 313 223q0 148 -179 148q-102 0 -203 -81l-130 163q145 147 378 147q183 0 296.5 -94.5t113.5 -256.5q0 -108 -66 -206
t-174 -153z" />
    <glyph glyph-name="four" unicode="4" 
d="M985 595h148l-39 -214h-148l-70 -381h-271l70 381h-657l29 158l974 932h126zM408 595h306l66 356z" />
    <glyph glyph-name="five" unicode="5" 
d="M1121 1242h-539l-45 -246q68 25 150 25q156 0 270 -101t114 -255q0 -685 -635 -685q-206 0 -338 126l113 232q46 -54 118 -91.5t136 -37.5q155 0 247.5 118t92.5 292q0 89 -60.5 141t-156.5 52q-132 0 -237 -114l-112 52l125 721h800z" />
    <glyph glyph-name="six" unicode="6" 
d="M929 1495l120 -155q-111 -42 -253 -164t-246 -257q70 23 153 23q182 0 287 -98t105 -271q0 -248 -158.5 -423t-394.5 -175q-426 0 -426 432q0 357 260 687.5t553 400.5zM381 379q0 -175 176 -175q118 0 193 99.5t75 230.5q0 83 -43.5 131t-121.5 48q-132 0 -205.5 -91.5
t-73.5 -242.5z" />
    <glyph glyph-name="seven" unicode="7" 
d="M469 0h-320q206 400 776 1223h-678l46 248h1021v-119q-524 -704 -845 -1352z" />
    <glyph glyph-name="eight" unicode="8" 
d="M896 788q168 -128 168 -317q0 -491 -563 -491q-188 0 -306 95.5t-118 261.5q0 160 83 286t229 196q-125 109 -125 272q0 175 146 287.5t342 112.5q164 0 275.5 -87t111.5 -231q0 -114 -67.5 -219.5t-175.5 -165.5zM708 909q164 133 164 234q0 52 -45.5 85.5t-104.5 33.5
q-185 0 -185 -170q0 -109 171 -183zM624 685q-123 -31 -202.5 -117.5t-79.5 -196.5q0 -72 54.5 -117t134.5 -45q121 0 191 68t70 188q0 134 -168 220z" />
    <glyph glyph-name="nine" unicode="9" 
d="M315 -29l-119 155q119 44 271 175t228 245q-67 -22 -154 -22q-168 0 -279.5 110t-111.5 278q0 262 150 420.5t403 158.5q201 0 313.5 -120.5t112.5 -331.5q0 -342 -241.5 -656.5t-572.5 -411.5zM420 932q0 -179 164 -179q134 0 206.5 90t72.5 244q0 175 -175 175
q-124 0 -196 -93.5t-72 -236.5z" />
    <glyph glyph-name="colon" unicode=":" horiz-adv-x="752" 
d="M164 139q0 66 46.5 112.5t112.5 46.5t112.5 -46.5t46.5 -112.5t-46.5 -112.5t-112.5 -46.5t-112.5 46.5t-46.5 112.5zM290 912q0 66 46.5 112.5t112.5 46.5t112.5 -46.5t46.5 -112.5t-46.5 -112.5t-112.5 -46.5t-112.5 46.5t-46.5 112.5z" />
    <glyph glyph-name="semicolon" unicode=";" horiz-adv-x="752" 
d="M228 -414l-77 101q159 117 159 263q0 56 -58 101t-58 97q0 67 57 110q52 39 122 39q72 0 126 -60q51 -58 51 -131q0 -302 -322 -520zM290 912q0 66 46.5 112.5t112.5 46.5t112.5 -46.5t46.5 -112.5t-46.5 -112.5t-112.5 -46.5t-112.5 46.5t-46.5 112.5z" />
    <glyph glyph-name="less" unicode="&#x3c;" 
d="M192 557v161l799 383v-228l-528 -236l528 -239v-228z" />
    <glyph glyph-name="equal" unicode="=" 
d="M179 745v201h898v-201h-898zM179 325v201h898v-201h-898z" />
    <glyph glyph-name="greater" unicode="&#x3e;" 
d="M265 170v228l527 239l-527 236v228l799 -383v-161z" />
    <glyph glyph-name="question" unicode="?" horiz-adv-x="813" 
d="M303 415h-146q-1 15 -8.5 56t-7.5 64q0 132 108 253l189 177q60 57 90 112t30 108q0 109 -141 109q-111 0 -204 -71l-85 169q113 99 346 99q147 0 236 -79.5t89 -218.5q0 -89 -38 -175t-107 -146l-172 -149q-102 -88 -135 -139q-44 -67 -44 -135v-34zM56 141
q0 68 49.5 114.5t117.5 46.5t117.5 -46.5t49.5 -114.5t-49 -114.5t-118 -46.5t-118 46.5t-49 114.5z" />
    <glyph glyph-name="at" unicode="@" horiz-adv-x="1578" 
d="M905 308q-92 -90 -223 -90q-121 0 -195 67t-74 187q0 196 136.5 344.5t331.5 148.5q99 0 279 -76q-69 -251 -78 -315.5t-9 -109.5q0 -71 52 -71q106 0 168 113t62 262q0 180 -119 288.5t-307 108.5q-293 0 -479 -205t-186 -511q0 -203 126 -328.5t329 -125.5
q106 0 210.5 35t159.5 93l117 -143q-89 -74 -233 -119.5t-276 -45.5q-281 0 -459 169t-178 443q0 395 251.5 656.5t639.5 261.5q276 0 442.5 -145t166.5 -399q0 -227 -126 -399.5t-325 -172.5q-130 0 -204 79zM874 812q-101 0 -171 -105t-70 -224q0 -95 82 -95
q71 0 118.5 52t64.5 132t42 215q-29 25 -66 25z" />
    <glyph glyph-name="A" unicode="A" horiz-adv-x="1257" 
d="M918 0l-46 298h-524l-172 -298h-271l890 1485h93l301 -1485h-271zM760 1040l-301 -547h384z" />
    <glyph glyph-name="B" unicode="B" horiz-adv-x="1208" 
d="M961 818q75 -33 125.5 -126t50.5 -198q0 -253 -178 -379.5t-577 -126.5q-131 0 -328 12l268 1463q168 24 299 24q546 0 546 -360q0 -96 -58.5 -180.5t-147.5 -128.5zM548 1260l-63 -358q59 -3 108 -3q143 0 228 60.5t85 174.5q0 132 -232 132q-48 0 -126 -6zM451 714
l-94 -501q46 -5 88 -5q200 0 314 68.5t114 196.5q0 245 -321 245q-50 0 -101 -4z" />
    <glyph glyph-name="C" unicode="C" horiz-adv-x="1255" 
d="M1165 1183q-114 81 -253 81q-225 0 -377.5 -214.5t-152.5 -475.5q0 -169 83 -270t231 -101q230 0 361 125l-5 -229q-142 -124 -409 -124q-238 0 -384 156.5t-146 406.5q0 404 224.5 678t586.5 274q177 0 314 -58z" />
    <glyph glyph-name="D" unicode="D" horiz-adv-x="1295" 
d="M397 0h-354l267 1462q146 26 274 26q335 0 518 -153t183 -443q0 -407 -242 -649.5t-646 -242.5zM527 1251l-178 -1018q44 -4 80 -4q268 0 426 189t158 485q0 162 -109 260t-280 98q-48 0 -97 -10z" />
    <glyph glyph-name="E" unicode="E" horiz-adv-x="1215" 
d="M1212 1237h-675l-61 -337h484l-41 -218h-484l-82 -454h664l-43 -228h-932l270 1465h943z" />
    <glyph glyph-name="F" unicode="F" horiz-adv-x="1199" 
d="M1240 1237h-705l-61 -337h515l-41 -218h-515l-125 -682h-267l272 1465h969z" />
    <glyph glyph-name="G" unicode="G" horiz-adv-x="1385" 
d="M1204 133q-226 -158 -553 -158q-252 0 -409.5 161.5t-157.5 409.5q0 435 239.5 689.5t652.5 254.5q224 0 333 -100l-78 -217q-147 89 -293 89q-264 0 -424 -193.5t-160 -484.5q0 -180 99 -280.5t271 -100.5q143 0 250 79l53 290h-203l40 218h461z" />
    <glyph glyph-name="H" unicode="H" horiz-adv-x="1389" 
d="M1162 0h-263l125 682h-582l-125 -682h-264l269 1465h264l-104 -565h582l104 565h265z" />
    <glyph glyph-name="I" unicode="I" horiz-adv-x="570" 
d="M329 0h-261l269 1465h262z" />
    <glyph glyph-name="J" unicode="J" horiz-adv-x="1021" 
d="M-3 336h229q-2 -128 107 -128q84 0 140 28t83.5 84.5t58.5 229.5l167 915h258l-168 -916q-63 -344 -194.5 -456.5t-374.5 -112.5q-142 0 -227 75.5t-85 206.5q0 30 6 74z" />
    <glyph glyph-name="K" unicode="K" horiz-adv-x="1331" 
d="M815 821l364 -821h-293l-274 626l-208 -229l-74 -397h-260l269 1465h260l-121 -666l608 666h308z" />
    <glyph glyph-name="L" unicode="L" horiz-adv-x="1082" 
d="M974 0h-924l269 1465h262l-227 -1237h662z" />
    <glyph glyph-name="M" unicode="M" horiz-adv-x="1610" 
d="M1240 0l-17 793l-445 -813h-91l-145 821l-307 -801h-251l544 1465h146l148 -929l484 929h150l42 -1465h-258z" />
    <glyph glyph-name="N" unicode="N" horiz-adv-x="1352" 
d="M1113 -20h-101l-540 947l-162 -927h-258l269 1465h120l529 -908l159 908h257z" />
    <glyph glyph-name="O" unicode="O" horiz-adv-x="1438" 
d="M99 545q0 391 213.5 668.5t555.5 277.5q263 0 405 -139.5t142 -403.5q0 -433 -218 -703t-597 -270q-232 0 -366.5 156.5t-134.5 413.5zM369 572q0 -169 67 -269t196 -100q238 0 376 214t138 511q0 336 -296 336q-208 0 -344.5 -220t-136.5 -472z" />
    <glyph glyph-name="P" unicode="P" horiz-adv-x="1195" 
d="M414 538l-99 -538h-266l276 1463q209 22 319 22q581 0 581 -437q0 -246 -176.5 -386.5t-457.5 -140.5q-90 0 -177 17zM542 1243l-87 -483q51 -14 130 -14q170 0 270 73t100 210q0 231 -262 231q-70 0 -151 -17z" />
    <glyph glyph-name="Q" unicode="Q" horiz-adv-x="1576" 
d="M781 -18q-75 -18 -163 -18q-241 0 -371.5 152.5t-130.5 422.5q0 393 213 672.5t556 279.5q262 0 404.5 -141.5t142.5 -404.5q0 -310 -118 -550t-336 -342q42 -85 145 -132.5t220 -47.5q123 0 229 72l96 -156q-128 -161 -377 -161q-169 0 -308.5 96.5t-201.5 257.5z
M386 566q0 -173 67.5 -272.5t196.5 -99.5q237 0 375 215t138 515q0 338 -295 338q-208 0 -345 -221.5t-137 -474.5z" />
    <glyph glyph-name="R" unicode="R" horiz-adv-x="1277" 
d="M845 649l327 -649h-293l-280 606q-68 1 -167 8l-113 -614h-268l268 1465q292 15 383 15q237 0 374.5 -91.5t137.5 -264.5q0 -176 -100.5 -305.5t-268.5 -169.5zM546 1240l-75 -410q59 -6 105 -6q378 0 378 240q0 101 -72.5 143.5t-240.5 42.5q-14 0 -95 -10z" />
    <glyph glyph-name="S" unicode="S" horiz-adv-x="1027" 
d="M940 1176q-116 85 -236 85q-241 0 -241 -182q0 -77 128 -184l151 -128q70 -60 97 -87.5t57 -76.5t45 -99t15 -102q0 -201 -150.5 -314t-390.5 -113q-197 0 -372 85l84 257q134 -101 311 -101q107 0 177.5 45.5t70.5 129.5q0 83 -128 183l-157 125q-72 58 -97.5 84
t-53.5 72.5t-42 95.5t-14 101q0 202 134 320t351 118q72 0 184 -16.5t157 -37.5z" />
    <glyph glyph-name="T" unicode="T" horiz-adv-x="1403" 
d="M1391 1237h-462l-226 -1237h-263l226 1237h-466l42 228h1191z" />
    <glyph glyph-name="U" unicode="U" horiz-adv-x="1355" 
d="M1217 451q-42 -226 -210 -351t-416 -125q-207 0 -337.5 99.5t-130.5 274.5q0 53 11 113l184 1003h268l-187 -998q-5 -27 -5 -57q0 -99 61 -153t166 -54q134 0 223 73t113 205l183 984h264z" />
    <glyph glyph-name="V" unicode="V" horiz-adv-x="1399" 
d="M674 -20h-142l-294 1485h278l175 -972l514 972h291z" />
    <glyph glyph-name="W" unicode="W" horiz-adv-x="1897" 
d="M1272 -20h-105l-159 894l-475 -894h-105l-207 1485h265l111 -888l462 888h113l136 -882l428 882h282z" />
    <glyph glyph-name="X" unicode="X" horiz-adv-x="1345" 
d="M848 741l345 -741h-287l-232 517l-394 -517h-303l588 772l-279 694l268 -1l189 -488l395 488h303z" />
    <glyph glyph-name="Y" unicode="Y" horiz-adv-x="1400" 
d="M848 648l-119 -648h-258l121 656l-345 809h271l236 -573l439 573h297z" />
    <glyph glyph-name="Z" unicode="Z" horiz-adv-x="1252" 
d="M482 228h597l-43 -228h-949v83l793 1154h-602l42 228h928v-83z" />
    <glyph glyph-name="bracketleft" unicode="[" horiz-adv-x="994" 
d="M923 1278h-263l-267 -1466h263l-43 -232h-544l353 1930h544z" />
    <glyph glyph-name="backslash" unicode="\" horiz-adv-x="978" 
d="M710 0l-539 1471h216l540 -1471h-217z" />
    <glyph glyph-name="bracketright" unicode="]" horiz-adv-x="994" 
d="M552 -420h-544l43 232h263l267 1466h-263l43 232h544z" />
    <glyph glyph-name="asciicircum" unicode="^" 
d="M887 907l-214 358l-218 -362h-192l358 568h107l356 -564h-197z" />
    <glyph glyph-name="underscore" unicode="_" 
d="M-8 -334v209h1215v-209h-1215z" />
    <glyph glyph-name="grave" unicode="`" 
d="M637 1285l-153 333h280l35 -333h-162z" />
    <glyph glyph-name="a" unicode="a" horiz-adv-x="1214" 
d="M988 384q-7 -37 -7 -82q0 -220 34 -302h-156q-70 0 -104 107q-128 -127 -319 -127q-174 0 -269.5 98t-95.5 273q0 305 184.5 522.5t465.5 217.5q271 0 391 -50zM699 887q-168 0 -268 -160.5t-100 -369.5q0 -173 170 -173q108 0 188.5 133t143.5 550q-71 20 -134 20z" />
    <glyph glyph-name="b" unicode="b" horiz-adv-x="1215" 
d="M518 -20q-159 0 -234 101l-80 -81h-183q96 245 131 440l190 1070h244l-84 -479q93 60 227 60q201 0 317 -134q110 -127 110 -332q0 -267 -186 -456t-452 -189zM632 880q-101 0 -174 -86l-97 -529q38 -78 151 -78q175 0 280 126q98 119 98 297q0 270 -258 270z" />
    <glyph glyph-name="c" unicode="c" horiz-adv-x="1009" 
d="M927 806q-105 77 -212 77q-172 0 -276.5 -128.5t-104.5 -321.5q0 -100 59 -171t152 -71q134 0 315 114l-30 -261q-153 -64 -315 -64q-203 0 -321.5 112.5t-118.5 309.5q0 299 173 494t453 195q160 0 277 -66z" />
    <glyph glyph-name="d" unicode="d" horiz-adv-x="1215" 
d="M969 0h-249l19 100q-83 -120 -275 -120q-188 0 -294 110.5t-106 300.5q0 307 171 503.5t455 196.5q54 0 121 -21t97 -46l92 486h242zM707 880q-173 0 -275.5 -127t-102.5 -323q0 -244 202 -244q218 0 283 348l48 256q-48 90 -155 90z" />
    <glyph glyph-name="e" unicode="e" horiz-adv-x="1130" 
d="M343 465q-2 -26 -2 -45q0 -112 66.5 -172t184.5 -60q63 0 145 34.5t129 77.5l-29 -263q-127 -57 -310 -57q-198 0 -321 125t-123 343q0 276 177.5 459.5t464.5 183.5q169 0 274 -71.5t105 -204.5q0 -181 -156.5 -284t-385.5 -103q-112 0 -219 37zM391 654q65 -19 141 -19
q136 0 230 41.5t94 119.5q0 87 -190 87q-75 0 -153 -65.5t-122 -163.5z" />
    <glyph glyph-name="f" unicode="f" horiz-adv-x="840" 
d="M929 1271q-81 36 -139 36q-144 0 -198 -236h246l-25 -201h-252l-160 -938q-26 -153 -141 -252t-269 -100l-53 166q71 16 128 71t70 125l167 928h-151l33 201h148q103 439 469 439q104 0 177 -43z" />
    <glyph glyph-name="g" unicode="g" horiz-adv-x="1096" 
d="M995 885q22 -50 22 -120q0 -156 -67.5 -270t-222.5 -185t-170 -96q68 13 106 13q112 0 191 -68.5t79 -174.5q0 -194 -136.5 -299t-395.5 -105q-97 0 -212.5 38t-188.5 94l109 189q143 -102 297 -102q278 0 278 150q0 32 -28.5 53t-86.5 32l-191 34q-107 33 -107 124
q0 53 88 107q-108 31 -176.5 116.5t-68.5 190.5q0 216 143 350.5t367 134.5q138 0 233 -59l94 102l147 -146zM368 628q0 -80 36 -131t99 -51q110 0 182 87.5t72 212.5q0 141 -147 141q-111 0 -176.5 -72.5t-65.5 -186.5z" />
    <glyph glyph-name="h" unicode="h" horiz-adv-x="1151" 
d="M1080 655l-123 -655h-257l126 665q6 32 6 65q0 150 -150 150q-135 0 -243 -114l-142 -766h-255l272 1510h249l-82 -504q133 85 281 85q154 0 241.5 -86t87.5 -240q0 -51 -11 -110z" />
    <glyph glyph-name="i" unicode="i" horiz-adv-x="669" 
d="M323 1415q0 67 47.5 111.5t115.5 44.5q67 0 115 -44.5t48 -111.5q0 -66 -48 -111t-115 -45t-115 44.5t-48 111.5zM397 0h-254l162 870h-137l42 201h387z" />
    <glyph glyph-name="j" unicode="j" horiz-adv-x="794" 
d="M444 1413q0 67 47.5 112.5t115.5 45.5t115.5 -45.5t47.5 -112.5t-48 -112t-115 -45t-115 45t-48 112zM512 15q-41 -222 -191 -328.5t-466 -106.5l11 221q140 0 216 19t121.5 69t60.5 132l152 849h-144l47 201h389z" />
    <glyph glyph-name="k" unicode="k" horiz-adv-x="1105" 
d="M763 0l-339 441l-42 -35l-71 -406h-251l262 1510h246l-129 -795l189 164q193 168 256 256l175 -151q-44 -54 -442 -405l442 -579h-296z" />
    <glyph glyph-name="l" unicode="l" horiz-adv-x="655" 
d="M477 84q-59 -94 -179 -94q-90 0 -142 59t-52 153q0 122 48 351l201 957h248l-206 -997q-44 -213 -44 -304q0 -58 36 -91.5t90 -33.5z" />
    <glyph glyph-name="m" unicode="m" horiz-adv-x="1700" 
d="M1650 702l-131 -702h-256l127 676q6 32 6 68q0 139 -147 139q-52 0 -113 -36t-91 -78l-143 -769h-256l142 755q2 11 2 24q0 104 -159 104q-48 0 -108.5 -35.5t-96.5 -81.5l-143 -766h-255l145 774q5 27 5 84q0 99 -28 193l245 43q13 -51 22 -97q121 94 302 94
q212 0 300 -115q127 115 320 115q321 0 321 -292q0 -43 -10 -97z" />
    <glyph glyph-name="n" unicode="n" horiz-adv-x="1151" 
d="M947 0h-259l117 624q14 75 14 126q0 133 -157 133q-134 0 -241 -113l-143 -770h-251l151 803q4 21 4 58q0 89 -29 190l245 45l23 -120q132 115 331 115q330 0 330 -309q0 -55 -14 -130z" />
    <glyph glyph-name="o" unicode="o" horiz-adv-x="1167" 
d="M72 401q0 290 177 490t448 200q207 0 319 -107.5t112 -305.5q0 -296 -175 -497t-452 -201q-203 0 -316 108.5t-113 312.5zM332 413q0 -229 197 -229q156 0 247 144.5t91 342.5q0 216 -197 216q-153 0 -245.5 -142.5t-92.5 -331.5z" />
    <glyph glyph-name="p" unicode="p" horiz-adv-x="1226" 
d="M305 29l-80 -449h-250l216 1160q12 64 12 129q0 88 -18 177l244 44q14 -38 23 -102q139 103 276 103q429 0 429 -416q0 -305 -176 -500t-465 -195q-115 0 -211 49zM344 242q49 -51 145 -51q197 0 301.5 119.5t104.5 339.5q0 102 -63 163.5t-173 61.5q-49 0 -115.5 -32.5
t-99.5 -71.5z" />
    <glyph glyph-name="q" unicode="q" horiz-adv-x="1226" 
d="M886 -420h-251l86 474q-108 -74 -257 -74q-193 0 -304 108t-111 301q0 300 182 501t469 201q62 0 140.5 -27.5t114.5 -65.5q22 34 53 51t60.5 20t122.5 3q-55 -138 -92 -339zM756 245l107 576q-60 59 -159 59q-176 0 -283.5 -127.5t-107.5 -318.5q0 -115 65 -179t180 -64
q118 0 198 54z" />
    <glyph glyph-name="r" unicode="r" horiz-adv-x="915" 
d="M869 817q-89 66 -157 66q-97 0 -177.5 -84.5t-101.5 -193.5l-113 -605h-251l200 1071h251l-17 -93q133 113 294 113q41 0 147 -19z" />
    <glyph glyph-name="s" unicode="s" horiz-adv-x="940" 
d="M791 778q-120 105 -220 105q-62 0 -107.5 -28.5t-45.5 -76.5q0 -59 108.5 -114t166.5 -87.5t95 -88t37 -127.5q0 -177 -132.5 -279t-338.5 -102q-176 0 -344 99l132 227q125 -118 245 -118q76 0 125.5 38t49.5 103q0 54 -94 103l-166 89.5t-109.5 99t-37.5 129.5
q0 156 124.5 248.5t305.5 92.5q124 0 322 -84z" />
    <glyph glyph-name="t" unicode="t" horiz-adv-x="897" 
d="M841 870h-295l-108 -475q-13 -57 -13 -95q0 -110 124 -110q55 0 180 52v-225q-108 -37 -294 -37q-122 0 -196 76t-74 198q0 40 9 79l121 537h-124l43 201h124l42 219l286 104l-75 -323h293z" />
    <glyph glyph-name="u" unicode="u" horiz-adv-x="1141" 
d="M928 -1h-250l15 78q-134 -97 -336 -97q-138 0 -216.5 79t-78.5 219q0 44 11 103l129 690h254l-127 -680q-8 -43 -8 -73q0 -130 146 -130q119 0 199.5 77.5t100.5 186.5l110 619h251z" />
    <glyph glyph-name="v" unicode="v" horiz-adv-x="1131" 
d="M511 -20h-90l-328 1091h261l180 -649l377 649h290z" />
    <glyph glyph-name="w" unicode="w" horiz-adv-x="1584" 
d="M1064 -20h-90l-187 619l-401 -619h-92l-211 1091h254l107 -590l367 590h90l177 -597l309 597h265z" />
    <glyph glyph-name="x" unicode="x" horiz-adv-x="1179" 
d="M755 538l311 -538h-305l-176 333l-285 -333h-308l466 559l-284 512h292l169 -325l258 325h315z" />
    <glyph glyph-name="y" unicode="y" horiz-adv-x="1155" 
d="M620 -107q-149 -311 -578 -313v241q283 1 363 183l52 120q-137 39 -185 288l-127 659h263q117 -704 149 -735l344 735h283z" />
    <glyph glyph-name="z" unicode="z" horiz-adv-x="1091" 
d="M447 217h508l-41 -217h-886v85l626 769h-525l41 217h892v-89z" />
    <glyph glyph-name="braceleft" unicode="{" horiz-adv-x="994" 
d="M1016 1306l-151 3q-131 0 -175.5 -52.5t-44.5 -161.5q0 -32 8 -94t8 -94q0 -201 -242 -340q144 -83 144 -216q0 -74 -68 -217.5t-68 -219.5q0 -132 222 -132h47l42 1l-36 -203h-169q-164 0 -273 72.5t-109 201.5q0 90 79.5 257.5t79.5 253.5q0 116 -182 128l26 143
q250 18 250 262q0 39 -9 115t-9 115q0 171 137 272.5t339 101.5h190z" />
    <glyph glyph-name="bar" unicode="|" 
d="M505 -420v1930h206v-1930h-206z" />
    <glyph glyph-name="braceright" unicode="}" horiz-adv-x="994" 
d="M872 492q-250 -16 -250 -268q0 -39 7 -116.5t7 -116.5q0 -192 -135.5 -301.5t-354.5 -109.5h-181l36 203q149 0 228 21.5t116.5 84.5t37.5 166q0 32 -6 97t-6 97q0 213 240 324q-142 107 -142 230q0 72 65 205.5t65 205.5q0 92 -102 92h-217l36 196h177q159 0 267 -71.5
t108 -195.5q0 -80 -75 -230t-75 -229q0 -127 180 -141z" />
    <glyph glyph-name="asciitilde" unicode="~" 
d="M326 479h-146q21 120 78.5 193.5t141.5 73.5q48 0 96 -10t197 -56q41 -11 73 -11q60 0 87 77h148q-38 -148 -92 -207.5t-139 -59.5q-47 0 -96 10t-144.5 38.5t-114.5 28.5q-52 0 -89 -77z" />
    <glyph glyph-name="Adieresis" unicode="&#xc4;" horiz-adv-x="1257" 
d="M918 0l-46 298h-524l-172 -298h-271l890 1485h93l301 -1485h-271zM760 1040l-301 -547h384zM944 1771q0 51 45 81.5t102 30.5q58 0 103 -31.5t45 -80.5q0 -51 -44.5 -82t-103.5 -31q-58 0 -102.5 31t-44.5 82zM471 1771q0 49 45 80.5t103 31.5q57 0 102 -30.5t45 -81.5
q0 -50 -45 -81.5t-102 -31.5q-59 0 -103.5 31t-44.5 82z" />
    <glyph glyph-name="Aring" unicode="&#xc5;" horiz-adv-x="1257" 
d="M918 0l-46 298h-524l-172 -298h-271l890 1485h93l301 -1485h-271zM760 1040l-301 -547h384zM846 1504q-99 0 -173 60t-74 150t74 149.5t173 59.5q100 0 173 -59t73 -150t-73.5 -150.5t-172.5 -59.5zM849 1802q-51 0 -89 -26t-38 -66q0 -39 38 -65t89 -26t89 26t38 65
q0 40 -38 66t-89 26z" />
    <glyph glyph-name="Ccedilla" unicode="&#xc7;" horiz-adv-x="1255" 
d="M1165 1183q-114 81 -253 81q-225 0 -377.5 -214.5t-152.5 -475.5q0 -169 83 -270t231 -101q230 0 361 125l-5 -229q-142 -124 -409 -124q-238 0 -384 156.5t-146 406.5q0 404 224.5 678t586.5 274q177 0 314 -58zM338 -450v123q18 -5 39 -5q58 0 108 25q63 31 63 83
q0 35 -29 64.5t-64 30.5l62 86q230 -15 230 -186q0 -115 -109 -176q-89 -50 -213 -50q-15 0 -87 5z" />
    <glyph glyph-name="Eacute" unicode="&#xc9;" horiz-adv-x="1215" 
d="M1212 1237h-675l-61 -337h484l-41 -218h-484l-82 -454h664l-43 -228h-932l270 1465h943zM843 1585h-216l205 333h284z" />
    <glyph glyph-name="Ntilde" unicode="&#xd1;" horiz-adv-x="1352" 
d="M1113 -20h-101l-540 947l-162 -927h-258l269 1465h120l529 -908l159 908h257zM641 1655h-160q23 105 90 179t153 74q49 0 150.5 -43t124.5 -43q33 0 62 26t34 60h162q-19 -87 -90 -170t-150 -83q-32 0 -144 46.5t-149 46.5q-56 0 -83 -93z" />
    <glyph glyph-name="Odieresis" unicode="&#xd6;" horiz-adv-x="1438" 
d="M99 545q0 391 213.5 668.5t555.5 277.5q263 0 405 -139.5t142 -403.5q0 -433 -218 -703t-597 -270q-232 0 -366.5 156.5t-134.5 413.5zM369 572q0 -169 67 -269t196 -100q238 0 376 214t138 511q0 336 -296 336q-208 0 -344.5 -220t-136.5 -472zM988 1771q0 51 45 81.5
t102 30.5q58 0 103 -31.5t45 -80.5q0 -51 -44.5 -82t-103.5 -31q-58 0 -102.5 31t-44.5 82zM515 1771q0 49 45 80.5t103 31.5q57 0 102 -30.5t45 -81.5q0 -50 -45 -81.5t-102 -31.5q-59 0 -103.5 31t-44.5 82z" />
    <glyph glyph-name="Udieresis" unicode="&#xdc;" horiz-adv-x="1355" 
d="M1217 451q-42 -226 -210 -351t-416 -125q-207 0 -337.5 99.5t-130.5 274.5q0 53 11 113l184 1003h268l-187 -998q-5 -27 -5 -57q0 -99 61 -153t166 -54q134 0 223 73t113 205l183 984h264zM989 1771q0 51 45 81.5t102 30.5q58 0 103 -31.5t45 -80.5q0 -51 -44.5 -82
t-103.5 -31q-58 0 -102.5 31t-44.5 82zM516 1771q0 49 45 80.5t103 31.5q57 0 102 -30.5t45 -81.5q0 -50 -45 -81.5t-102 -31.5q-59 0 -103.5 31t-44.5 82z" />
    <glyph glyph-name="aacute" unicode="&#xe1;" horiz-adv-x="1214" 
d="M988 384q-7 -37 -7 -82q0 -220 34 -302h-156q-70 0 -104 107q-128 -127 -319 -127q-174 0 -269.5 98t-95.5 273q0 305 184.5 522.5t465.5 217.5q271 0 391 -50zM699 887q-168 0 -268 -160.5t-100 -369.5q0 -173 170 -173q108 0 188.5 133t143.5 550q-71 20 -134 20z
M775 1285h-216l205 333h284z" />
    <glyph glyph-name="agrave" unicode="&#xe0;" horiz-adv-x="1214" 
d="M988 384q-7 -37 -7 -82q0 -220 34 -302h-156q-70 0 -104 107q-128 -127 -319 -127q-174 0 -269.5 98t-95.5 273q0 305 184.5 522.5t465.5 217.5q271 0 391 -50zM699 887q-168 0 -268 -160.5t-100 -369.5q0 -173 170 -173q108 0 188.5 133t143.5 550q-71 20 -134 20z
M662 1285l-153 333h280l35 -333h-162z" />
    <glyph glyph-name="acircumflex" unicode="&#xe2;" horiz-adv-x="1214" 
d="M988 384q-7 -37 -7 -82q0 -220 34 -302h-156q-70 0 -104 107q-128 -127 -319 -127q-174 0 -269.5 98t-95.5 273q0 305 184.5 522.5t465.5 217.5q271 0 391 -50zM699 887q-168 0 -268 -160.5t-100 -369.5q0 -173 170 -173q108 0 188.5 133t143.5 550q-71 20 -134 20z
M878 1285l-118 143l-191 -146h-271l432 358h139l290 -355h-281z" />
    <glyph glyph-name="adieresis" unicode="&#xe4;" horiz-adv-x="1214" 
d="M988 384q-7 -37 -7 -82q0 -220 34 -302h-156q-70 0 -104 107q-128 -127 -319 -127q-174 0 -269.5 98t-95.5 273q0 305 184.5 522.5t465.5 217.5q271 0 391 -50zM699 887q-168 0 -268 -160.5t-100 -369.5q0 -173 170 -173q108 0 188.5 133t143.5 550q-71 20 -134 20z
M830 1401q0 51 45 81.5t102 30.5q58 0 103 -31.5t45 -80.5q0 -51 -44.5 -82t-103.5 -31q-58 0 -102.5 31t-44.5 82zM357 1401q0 49 45 80.5t103 31.5q57 0 102 -30.5t45 -81.5q0 -50 -45 -81.5t-102 -31.5q-59 0 -103.5 31t-44.5 82z" />
    <glyph glyph-name="atilde" unicode="&#xe3;" horiz-adv-x="1214" 
d="M988 384q-7 -37 -7 -82q0 -220 34 -302h-156q-70 0 -104 107q-128 -127 -319 -127q-174 0 -269.5 98t-95.5 273q0 305 184.5 522.5t465.5 217.5q271 0 391 -50zM699 887q-168 0 -268 -160.5t-100 -369.5q0 -173 170 -173q108 0 188.5 133t143.5 550q-71 20 -134 20z
M484 1285h-160q23 105 90 179t153 74q49 0 150.5 -43t124.5 -43q33 0 62 26t34 60h162q-19 -87 -90 -170t-150 -83q-32 0 -144 46.5t-149 46.5q-56 0 -83 -93z" />
    <glyph glyph-name="aring" unicode="&#xe5;" horiz-adv-x="1214" 
d="M988 384q-7 -37 -7 -82q0 -220 34 -302h-156q-70 0 -104 107q-128 -127 -319 -127q-174 0 -269.5 98t-95.5 273q0 305 184.5 522.5t465.5 217.5q271 0 391 -50zM699 887q-168 0 -268 -160.5t-100 -369.5q0 -173 170 -173q108 0 188.5 133t143.5 550q-71 20 -134 20z
M771 1285q-99 0 -173 60t-74 150t74 149.5t173 59.5q100 0 173 -59t73 -150t-73.5 -150.5t-172.5 -59.5zM774 1583q-51 0 -89 -26t-38 -66q0 -39 38 -65t89 -26t89 26t38 65q0 40 -38 66t-89 26z" />
    <glyph glyph-name="ccedilla" unicode="&#xe7;" horiz-adv-x="1009" 
d="M927 806q-105 77 -212 77q-172 0 -276.5 -128.5t-104.5 -321.5q0 -100 59 -171t152 -71q134 0 315 114l-30 -261q-153 -64 -315 -64q-203 0 -321.5 112.5t-118.5 309.5q0 299 173 494t453 195q160 0 277 -66zM243 -450v123q18 -5 39 -5q58 0 108 25q63 31 63 83
q0 35 -29 64.5t-64 30.5l62 86q230 -15 230 -186q0 -115 -109 -176q-89 -50 -213 -50q-15 0 -87 5z" />
    <glyph glyph-name="eacute" unicode="&#xe9;" horiz-adv-x="1130" 
d="M343 465q-2 -26 -2 -45q0 -112 66.5 -172t184.5 -60q63 0 145 34.5t129 77.5l-29 -263q-127 -57 -310 -57q-198 0 -321 125t-123 343q0 276 177.5 459.5t464.5 183.5q169 0 274 -71.5t105 -204.5q0 -181 -156.5 -284t-385.5 -103q-112 0 -219 37zM391 654q65 -19 141 -19
q136 0 230 41.5t94 119.5q0 87 -190 87q-75 0 -153 -65.5t-122 -163.5zM755 1285h-216l205 333h284z" />
    <glyph glyph-name="egrave" unicode="&#xe8;" horiz-adv-x="1130" 
d="M343 465q-2 -26 -2 -45q0 -112 66.5 -172t184.5 -60q63 0 145 34.5t129 77.5l-29 -263q-127 -57 -310 -57q-198 0 -321 125t-123 343q0 276 177.5 459.5t464.5 183.5q169 0 274 -71.5t105 -204.5q0 -181 -156.5 -284t-385.5 -103q-112 0 -219 37zM391 654q65 -19 141 -19
q136 0 230 41.5t94 119.5q0 87 -190 87q-75 0 -153 -65.5t-122 -163.5zM677 1285l-153 333h280l35 -333h-162z" />
    <glyph glyph-name="ecircumflex" unicode="&#xea;" horiz-adv-x="1130" 
d="M343 465q-2 -26 -2 -45q0 -112 66.5 -172t184.5 -60q63 0 145 34.5t129 77.5l-29 -263q-127 -57 -310 -57q-198 0 -321 125t-123 343q0 276 177.5 459.5t464.5 183.5q169 0 274 -71.5t105 -204.5q0 -181 -156.5 -284t-385.5 -103q-112 0 -219 37zM391 654q65 -19 141 -19
q136 0 230 41.5t94 119.5q0 87 -190 87q-75 0 -153 -65.5t-122 -163.5zM893 1285l-118 143l-191 -146h-271l432 358h139l290 -355h-281z" />
    <glyph glyph-name="edieresis" unicode="&#xeb;" horiz-adv-x="1130" 
d="M343 465q-2 -26 -2 -45q0 -112 66.5 -172t184.5 -60q63 0 145 34.5t129 77.5l-29 -263q-127 -57 -310 -57q-198 0 -321 125t-123 343q0 276 177.5 459.5t464.5 183.5q169 0 274 -71.5t105 -204.5q0 -181 -156.5 -284t-385.5 -103q-112 0 -219 37zM391 654q65 -19 141 -19
q136 0 230 41.5t94 119.5q0 87 -190 87q-75 0 -153 -65.5t-122 -163.5zM790 1401q0 51 45 81.5t102 30.5q58 0 103 -31.5t45 -80.5q0 -51 -44.5 -82t-103.5 -31q-58 0 -102.5 31t-44.5 82zM317 1401q0 49 45 80.5t103 31.5q57 0 102 -30.5t45 -81.5q0 -50 -45 -81.5
t-102 -31.5q-59 0 -103.5 31t-44.5 82z" />
    <glyph glyph-name="iacute" unicode="&#xed;" horiz-adv-x="669" 
d="M397 0h-254l162 870h-137l42 201h387zM524 1285h-216l205 333h284z" />
    <glyph glyph-name="igrave" unicode="&#xec;" horiz-adv-x="669" 
d="M397 0h-254l162 870h-137l42 201h387zM358 1285l-153 333h280l35 -333h-162z" />
    <glyph glyph-name="icircumflex" unicode="&#xee;" horiz-adv-x="669" 
d="M397 0h-254l162 870h-137l42 201h387zM603 1285l-118 143l-191 -146h-271l432 358h139l290 -355h-281z" />
    <glyph glyph-name="idieresis" unicode="&#xef;" horiz-adv-x="669" 
d="M397 0h-254l162 870h-137l42 201h387zM545 1401q0 51 45 81.5t102 30.5q58 0 103 -31.5t45 -80.5q0 -51 -44.5 -82t-103.5 -31q-58 0 -102.5 31t-44.5 82zM72 1401q0 49 45 80.5t103 31.5q57 0 102 -30.5t45 -81.5q0 -50 -45 -81.5t-102 -31.5q-59 0 -103.5 31t-44.5 82z
" />
    <glyph glyph-name="ntilde" unicode="&#xf1;" horiz-adv-x="1151" 
d="M947 0h-259l117 624q14 75 14 126q0 133 -157 133q-134 0 -241 -113l-143 -770h-251l151 803q4 21 4 58q0 89 -29 190l245 45l23 -120q132 115 331 115q330 0 330 -309q0 -55 -14 -130zM443 1285h-160q23 105 90 179t153 74q49 0 150.5 -43t124.5 -43q33 0 62 26t34 60
h162q-19 -87 -90 -170t-150 -83q-32 0 -144 46.5t-149 46.5q-56 0 -83 -93z" />
    <glyph glyph-name="oacute" unicode="&#xf3;" horiz-adv-x="1167" 
d="M72 401q0 290 177 490t448 200q207 0 319 -107.5t112 -305.5q0 -296 -175 -497t-452 -201q-203 0 -316 108.5t-113 312.5zM332 413q0 -229 197 -229q156 0 247 144.5t91 342.5q0 216 -197 216q-153 0 -245.5 -142.5t-92.5 -331.5zM725 1285h-216l205 333h284z" />
    <glyph glyph-name="ograve" unicode="&#xf2;" horiz-adv-x="1167" 
d="M72 401q0 290 177 490t448 200q207 0 319 -107.5t112 -305.5q0 -296 -175 -497t-452 -201q-203 0 -316 108.5t-113 312.5zM332 413q0 -229 197 -229q156 0 247 144.5t91 342.5q0 216 -197 216q-153 0 -245.5 -142.5t-92.5 -331.5zM637 1285l-153 333h280l35 -333h-162z
" />
    <glyph glyph-name="ocircumflex" unicode="&#xf4;" horiz-adv-x="1167" 
d="M72 401q0 290 177 490t448 200q207 0 319 -107.5t112 -305.5q0 -296 -175 -497t-452 -201q-203 0 -316 108.5t-113 312.5zM332 413q0 -229 197 -229q156 0 247 144.5t91 342.5q0 216 -197 216q-153 0 -245.5 -142.5t-92.5 -331.5zM843 1285l-118 143l-191 -146h-271
l432 358h139l290 -355h-281z" />
    <glyph glyph-name="odieresis" unicode="&#xf6;" horiz-adv-x="1167" 
d="M72 401q0 290 177 490t448 200q207 0 319 -107.5t112 -305.5q0 -296 -175 -497t-452 -201q-203 0 -316 108.5t-113 312.5zM332 413q0 -229 197 -229q156 0 247 144.5t91 342.5q0 216 -197 216q-153 0 -245.5 -142.5t-92.5 -331.5zM790 1401q0 51 45 81.5t102 30.5
q58 0 103 -31.5t45 -80.5q0 -51 -44.5 -82t-103.5 -31q-58 0 -102.5 31t-44.5 82zM317 1401q0 49 45 80.5t103 31.5q57 0 102 -30.5t45 -81.5q0 -50 -45 -81.5t-102 -31.5q-59 0 -103.5 31t-44.5 82z" />
    <glyph glyph-name="otilde" unicode="&#xf5;" horiz-adv-x="1167" 
d="M72 401q0 290 177 490t448 200q207 0 319 -107.5t112 -305.5q0 -296 -175 -497t-452 -201q-203 0 -316 108.5t-113 312.5zM332 413q0 -229 197 -229q156 0 247 144.5t91 342.5q0 216 -197 216q-153 0 -245.5 -142.5t-92.5 -331.5zM469 1285h-160q23 105 90 179t153 74
q49 0 150.5 -43t124.5 -43q33 0 62 26t34 60h162q-19 -87 -90 -170t-150 -83q-32 0 -144 46.5t-149 46.5q-56 0 -83 -93z" />
    <glyph glyph-name="uacute" unicode="&#xfa;" horiz-adv-x="1141" 
d="M928 -1h-250l15 78q-134 -97 -336 -97q-138 0 -216.5 79t-78.5 219q0 44 11 103l129 690h254l-127 -680q-8 -43 -8 -73q0 -130 146 -130q119 0 199.5 77.5t100.5 186.5l110 619h251zM735 1285h-216l205 333h284z" />
    <glyph glyph-name="ugrave" unicode="&#xf9;" horiz-adv-x="1141" 
d="M928 -1h-250l15 78q-134 -97 -336 -97q-138 0 -216.5 79t-78.5 219q0 44 11 103l129 690h254l-127 -680q-8 -43 -8 -73q0 -130 146 -130q119 0 199.5 77.5t100.5 186.5l110 619h251zM612 1285l-153 333h280l35 -333h-162z" />
    <glyph glyph-name="ucircumflex" unicode="&#xfb;" horiz-adv-x="1141" 
d="M928 -1h-250l15 78q-134 -97 -336 -97q-138 0 -216.5 79t-78.5 219q0 44 11 103l129 690h254l-127 -680q-8 -43 -8 -73q0 -130 146 -130q119 0 199.5 77.5t100.5 186.5l110 619h251zM843 1285l-118 143l-191 -146h-271l432 358h139l290 -355h-281z" />
    <glyph glyph-name="udieresis" unicode="&#xfc;" horiz-adv-x="1141" 
d="M928 -1h-250l15 78q-134 -97 -336 -97q-138 0 -216.5 79t-78.5 219q0 44 11 103l129 690h254l-127 -680q-8 -43 -8 -73q0 -130 146 -130q119 0 199.5 77.5t100.5 186.5l110 619h251zM750 1401q0 51 45 81.5t102 30.5q58 0 103 -31.5t45 -80.5q0 -51 -44.5 -82t-103.5 -31
q-58 0 -102.5 31t-44.5 82zM277 1401q0 49 45 80.5t103 31.5q57 0 102 -30.5t45 -81.5q0 -50 -45 -81.5t-102 -31.5q-59 0 -103.5 31t-44.5 82z" />
    <glyph glyph-name="dagger" unicode="&#x2020;" horiz-adv-x="940" 
d="M641 888l-198 -1122l-125 -120l-85 119l198 1123h-350l34 194h350l53 303h210l-53 -303h350l-34 -194h-350z" />
    <glyph glyph-name="degree" unicode="&#xb0;" 
d="M317 1282q0 91 73 150t174 59q100 0 173 -59t73 -150t-73.5 -150.5t-172.5 -59.5q-102 0 -174.5 59.5t-72.5 150.5zM460 1282q0 -38 31 -63.5t73 -25.5q40 0 72 25t32 64t-32 64t-72 25q-42 0 -73 -25.5t-31 -63.5z" />
    <glyph glyph-name="cent" unicode="&#xa2;" 
d="M1014 974l-48 -205q-80 60 -153 69l-183 -605q117 4 278 105l-28 -244q-140 -58 -309 -58l-56 -188h-159l67 215q-231 83 -231 354q0 256 146.5 430.5t386.5 187.5l57 182h145l-58 -191q78 -14 145 -52zM659 821q-106 -37 -165.5 -141t-59.5 -236q0 -95 59 -157z" />
    <glyph glyph-name="sterling" unicode="&#xa3;" 
d="M1025 1189q-93 62 -179 62q-242 0 -242 -381h219l-39 -209h-179q-2 -116 -38.5 -258t-86.5 -207q91 -41 224 -41q154 0 254 151l163 -171q-51 -97 -170.5 -158t-250.5 -61q-74 0 -218.5 28t-217.5 28q-77 0 -212 -18l-62 200q38 13 84 32q92 38 107.5 49.5t36 37t38 59.5
t36 87t31 117t12.5 125h-184l36 209h147q4 609 565 609q152 0 262 -85z" />
    <glyph glyph-name="section" unicode="&#xa7;" 
d="M942 1162q-105 100 -220 100q-175 0 -175 -109q0 -52 73 -83q176 -54 234.5 -81t97 -79.5t38.5 -121.5q0 -130 -104 -233q77 -71 77 -168q0 -184 -144.5 -297t-352.5 -113q-227 0 -364 105l122 222q102 -101 272 -101q193 0 193 132q0 89 -182 131q-121 28 -201 92.5
t-80 149.5q0 130 112 220q-64 62 -64 163q0 185 134 292t351 107q178 0 302 -113zM528 856q-51 -33 -51 -80q0 -37 35 -70t201 -68q19 46 19 87q0 27 -12 48.5t-33.5 35.5t-38.5 18z" />
    <glyph glyph-name="bullet" unicode="&#x2022;" horiz-adv-x="1074" 
d="M542 863q122 0 205.5 -83.5t83.5 -205.5t-83.5 -205.5t-205.5 -83.5t-205.5 83.5t-83.5 205.5t83.5 205.5t205.5 83.5z" />
    <glyph glyph-name="paragraph" unicode="&#xb6;" 
d="M857 -250h-205l285 1553h-137l-285 -1553h-225l158 860q-279 21 -279 313q0 232 117.5 399t310.5 167h579z" />
    <glyph glyph-name="germandbls" unicode="&#xdf;" horiz-adv-x="1182" 
d="M441 3l84 209q51 -12 73 -12q118 0 184.5 85t66.5 220q0 48 -19.5 89t-47 67l-114.5 104q-63 62 -63 130q0 49 53 96l86 74q33 29 49 65.5t16 76.5q0 78 -115 78q-71 0 -120 -59t-80 -229l-190 -1048q-31 -169 -148 -268.5t-289 -100.5l-19 171q167 34 210 271l192 1070
q33 185 155 301.5t293 116.5q164 0 260.5 -64t96.5 -186q0 -63 -28 -131.5t-158 -206.5q247 -143 247 -371q0 -243 -138 -407t-361 -164q-112 0 -176 23z" />
    <glyph glyph-name="registered" unicode="&#xae;" horiz-adv-x="1460" 
d="M75 661q0 292 206.5 498t498.5 206t498 -206t206 -498t-206 -498.5t-498 -206.5t-498.5 206.5t-206.5 498.5zM245 661q0 -221 157 -378t378 -157t377.5 156.5t156.5 378.5q0 221 -156.5 377.5t-377.5 156.5q-222 0 -378.5 -156.5t-156.5 -377.5zM940 267l-190 323h-66
v-323h-162v805h220q297 0 297 -235q0 -145 -133 -216l214 -354h-180zM742 926h-58v-197q94 0 127.5 5t49.5 27.5t16 68.5q0 96 -135 96z" />
    <glyph glyph-name="copyright" unicode="&#xa9;" horiz-adv-x="1460" 
d="M75 661q0 292 206.5 498t498.5 206t498 -206t206 -498t-206 -498.5t-498 -206.5t-498.5 206.5t-206.5 498.5zM245 661q0 -221 157 -378t378 -157t377.5 156.5t156.5 378.5q0 221 -156.5 377.5t-377.5 156.5q-222 0 -378.5 -156.5t-156.5 -377.5zM1012 1025l-56 -142
q-69 51 -167 51q-86 0 -138.5 -76.5t-52.5 -199.5q0 -119 55 -189.5t138 -70.5q91 0 162 92l92 -126q-115 -113 -265 -113q-159 0 -251 114t-92 298q0 178 97.5 297.5t252.5 119.5q131 0 225 -55z" />
    <glyph glyph-name="trademark" unicode="&#x2122;" horiz-adv-x="1319" 
d="M499 1332v-594h-160v594h-218v139h726l147 -454l145 454h123l122 -732h-155l-66 364l-117 -369h-103l-123 374l-61 -369h-156l98 593h-202z" />
    <glyph glyph-name="acute" unicode="&#xb4;" 
d="M710 1285h-216l205 333h284z" />
    <glyph glyph-name="dieresis" unicode="&#xa8;" 
d="M815 1401q0 51 45 81.5t102 30.5q58 0 103 -31.5t45 -80.5q0 -51 -44.5 -82t-103.5 -31q-58 0 -102.5 31t-44.5 82zM342 1401q0 49 45 80.5t103 31.5q57 0 102 -30.5t45 -81.5q0 -50 -45 -81.5t-102 -31.5q-59 0 -103.5 31t-44.5 82z" />
    <glyph glyph-name="notequal" unicode="&#x2260;" 
d="M174 325v201h271l163 219h-434v201h584l116 155h189l-116 -155h125v-201h-275l-163 -219h438v-201h-588l-121 -162h-188l120 162h-121z" />
    <glyph glyph-name="AE" unicode="&#xc6;" horiz-adv-x="1965" 
d="M1962 1237h-675l-61 -337h484l-41 -218h-484l-82 -454h664l-43 -228h-932l55 298h-391l-183 -298h-307l969 1465h1070zM554 493h329l140 750z" />
    <glyph glyph-name="Oslash" unicode="&#xd8;" horiz-adv-x="1438" 
d="M1468 1491l-149 -194q96 -134 96 -349q0 -433 -218 -703t-597 -270q-142 0 -250 61l-54 -71h-248l156 205q-105 150 -105 375q0 391 213.5 668.5t555.5 277.5q174 0 296 -62l48 62h256zM1011 1228q-65 36 -161 36q-208 0 -344.5 -220t-136.5 -472q0 -88 19 -160zM504 236
q54 -33 128 -33q238 0 376 214t138 511q0 71 -13 127z" />
    <glyph glyph-name="infinity" unicode="&#x221e;" 
d="M595 529q-113 -127 -248 -127q-121 0 -199 74t-78 195q0 109 82.5 187t191.5 78q143 0 250 -113q107 113 255 113q117 0 195 -74t78 -191q0 -122 -79.5 -195.5t-206.5 -73.5q-130 0 -241 127zM695 672q87 -107 151 -107q110 0 110 106q0 46 -34 76t-86 30
q-29 0 -72.5 -34t-68.5 -71zM498 672q-75 82 -99.5 93.5t-41.5 11.5q-120 0 -120 -106t110 -106q65 0 151 107z" />
    <glyph glyph-name="plusminus" unicode="&#xb1;" 
d="M713 535v-334h349v-201h-898v201h348v334h-348v201h348v343h201v-343h349v-201h-349z" />
    <glyph glyph-name="lessequal" unicode="&#x2264;" 
d="M192 627v161l799 383v-228l-528 -236l528 -239v-228zM1062 201v-201h-898v201h898z" />
    <glyph glyph-name="greaterequal" unicode="&#x2265;" 
d="M1034 627l-799 -387v228l528 239l-528 236v228l799 -383v-161zM1062 0h-898v201h898v-201z" />
    <glyph glyph-name="yen" unicode="&#xa5;" 
d="M744 648l-15 -80h255l-37 -182h-251l-71 -386h-258l71 386h-259l37 182h256l16 88l-345 809h271l236 -573l439 573h298z" />
    <glyph glyph-name="mu" unicode="&#x3bc;" horiz-adv-x="1140" 
d="M926 0h-250l17 80q-134 -97 -336 -97q-52 0 -103 13l-76 -416h-251l275 1491h254l-127 -679q-8 -43 -8 -72q0 -130 146 -130q119 0 199.5 77.5t100.5 185.5l110 618h251z" />
    <glyph glyph-name="partialdiff" unicode="&#x2202;" horiz-adv-x="1180" 
d="M745 1068q-44 95 -189 177.5t-257 82.5l98 213q301 0 519 -251t218 -568q0 -309 -185 -526t-471 -217q-193 0 -298 97.5t-105 279.5q0 283 194 490t476 222zM838 885q-208 0 -358 -138t-150 -340q0 -95 51.5 -150.5t145.5 -55.5q166 0 261.5 146.5t95.5 355.5
q0 120 -46 182z" />
    <glyph glyph-name="summation" unicode="&#x2211;" horiz-adv-x="1075" 
d="M-68 -173l37 210l518 697l-300 539l34 192h935l-41 -232h-605l288 -495l-513 -679h662l-41 -232h-974z" />
    <glyph glyph-name="product" unicode="&#x220f;" horiz-adv-x="1304" 
d="M1246 1233l-248 -1403h-260l248 1403h-430l-248 -1403h-260l248 1403h-130l41 232h1210l-41 -232h-130z" />
    <glyph glyph-name="pi" unicode="&#x3c0;" horiz-adv-x="1232" 
d="M1139 181l-33 -201q-385 0 -385 261q0 52 50 314l59 308h-277l-152 -863h-253l152 863h-167l36 208h1108l-36 -208h-158l-54 -290q-41 -220 -41 -261q0 -131 151 -131z" />
    <glyph glyph-name="integral" unicode="&#x222b;" horiz-adv-x="1074" 
d="M-22 -297l100 142q77 -95 170 -95q71 0 114 74t43 167v1073q0 180 110.5 313t270.5 133q161 0 280 -102l-124 -142q-59 74 -166 74q-68 0 -110 -55t-42 -251v-1011q0 -188 -93 -315.5t-252 -127.5q-178 0 -301 123z" />
    <glyph glyph-name="ordfeminine" unicode="&#xaa;" horiz-adv-x="876" 
d="M808 728h-75q-85 0 -118 71q-73 -85 -190 -85q-115 0 -178.5 70t-63.5 191q0 206 116 361t297 155q170 0 239 -36l-75 -458q-5 -31 -5 -57q0 -77 53 -212zM583 1343q-108 0 -173 -111.5t-65 -252.5q0 -117 119 -117q35 0 64.5 25t55.5 84t34 101l42 258q-38 13 -77 13z
" />
    <glyph glyph-name="ordmasculine" unicode="&#xba;" horiz-adv-x="888" 
d="M231 1009q0 192 113 337t285 145q126 0 194 -76t68 -213q0 -202 -108 -345t-281 -143q-128 0 -199.5 79t-71.5 216zM393 1017q0 -155 125 -155q96 0 153 103.5t57 230.5q0 147 -115 147q-95 0 -157.5 -103t-62.5 -223z" />
    <glyph glyph-name="Omega" unicode="&#x3a9;" horiz-adv-x="1370" 
d="M1019 193h241l-33 -192l-550 -1l31 181q224 171 315 343t91 400q0 185 -75.5 265t-240.5 80q-178 0 -318 -183t-140 -427q0 -139 54.5 -276t144.5 -200l-32 -183l-550 1l34 192l226 -1q-143 166 -143 404q0 380 209.5 637.5t555.5 257.5q237 0 387 -149t150 -392
q0 -482 -357 -757z" />
    <glyph glyph-name="ae" unicode="&#xe6;" horiz-adv-x="1830" 
d="M1020 1030l-23 -109q163 170 428 170q157 0 258 -60q126 -73 126 -219q0 -196 -185 -301q-151 -87 -362 -87q-113 0 -214 35q-2 -19 -2 -38q0 -117 57 -171t189 -54q67 0 155 39q82 36 126 80l-31 -277q-128 -58 -315 -58q-141 0 -220 29q-87 33 -139 114q0 -27 21 -123
h-93q-68 0 -113 65q-67 -85 -267 -85q-165 0 -260 108q-90 102 -90 265q0 294 185 512q192 226 470 226q157 0 299 -61zM1551 784q0 91 -145 91q-91 0 -177 -60.5t-131 -158.5q59 -17 134 -17q319 0 319 145zM827 837q-34 42 -98 42q-170 0 -283 -151q-109 -144 -109 -343
q0 -193 164 -193q96 0 171 97q60 78 79 173z" />
    <glyph glyph-name="oslash" unicode="&#xf8;" horiz-adv-x="1167" 
d="M1185 1091l-131 -151q74 -102 74 -262q0 -296 -175 -497t-452 -201q-139 0 -237 52l-58 -67h-208l148 170q-74 104 -74 266q0 290 177 490t448 200q140 0 238 -50l44 50h206zM780 863q-44 24 -110 24q-153 0 -245.5 -142.5t-92.5 -331.5q0 -32 4 -60zM419 210
q44 -26 110 -26q156 0 247 144.5t91 342.5q0 27 -3 51z" />
    <glyph glyph-name="questiondown" unicode="&#xbf;" horiz-adv-x="752" 
d="M502 769q-68 0 -117.5 46.5t-49.5 114.5t49 114.5t118 46.5q68 0 117.5 -46.5t49.5 -114.5t-49.5 -114.5t-117.5 -46.5zM597 -321q-113 -99 -346 -99q-148 0 -236.5 80t-88.5 218q0 170 128 307l228 196q74 65 107 124t33 117v34h146q1 -15 8.5 -56t7.5 -64
q0 -132 -108 -253l-165 -156q-68 -64 -93.5 -101t-38 -71.5t-12.5 -68.5q0 -109 141 -109q111 0 204 71z" />
    <glyph glyph-name="exclamdown" unicode="&#xa1;" horiz-adv-x="752" 
d="M452 769q-68 0 -117.5 46.5t-49.5 114.5t49 114.5t118 46.5t118 -46.5t49 -114.5t-49.5 -114.5t-117.5 -46.5zM472 647l-10 -279q-4 -109 -13.5 -202.5t-22.5 -165.5l-78 -420h-297l57 330q13 77 103 348l129 389h132z" />
    <glyph glyph-name="logicalnot" unicode="&#xac;" 
d="M1062 966v-556h-201v355h-697v201h898z" />
    <glyph glyph-name="radical" unicode="&#x221a;" 
d="M790 1296l-384 -1296h-179l-236 290l146 119l131 -167l364 1229h582v-175h-424z" />
    <glyph glyph-name="florin" unicode="&#x192;" 
d="M1169 1271q-81 36 -139 36q-144 0 -198 -236h246l-25 -201h-252l-160 -938q-26 -153 -141 -252t-269 -100l-53 166q71 16 128 71t70 125l167 928h-151l33 201h148q103 439 469 439q104 0 177 -43z" />
    <glyph glyph-name="approxequal" unicode="&#x2248;" 
d="M317 619h-146q21 120 78.5 193.5t141.5 73.5q48 0 96 -10t197 -56q41 -11 73 -11q60 0 87 77h148q-40 -154 -94 -210.5t-137 -56.5q-47 0 -96 10t-144.5 38.5t-114.5 28.5q-52 0 -89 -77zM317 229h-146q21 120 78.5 193.5t141.5 73.5q48 0 96 -10t197 -56q41 -11 73 -11
q60 0 87 77h148q-40 -154 -94 -210.5t-137 -56.5q-47 0 -96 10t-144.5 38.5t-114.5 28.5q-52 0 -89 -77z" />
    <glyph glyph-name="Delta" unicode="&#x394;" horiz-adv-x="1198" 
d="M-32 0l27 153l767 1312h186l257 -1312l-27 -153h-1210zM779 1076l-481 -855h640z" />
    <glyph glyph-name="guillemotleft" unicode="&#xab;" horiz-adv-x="1074" 
d="M99 519v96l415 285v-197l-189 -140l189 -124v-197zM551 519v96l415 285v-197l-189 -140l189 -124v-197z" />
    <glyph glyph-name="guillemotright" unicode="&#xbb;" horiz-adv-x="1074" 
d="M189 242v197l189 124l-189 140v197l415 -285v-96zM591 242v197l189 124l-189 140v197l415 -285v-96z" />
    <glyph glyph-name="ellipsis" unicode="&#x2026;" horiz-adv-x="1504" 
d="M400 131q0 -62 -44 -106.5t-106 -44.5t-106 44.5t-44 106.5t44 106t106 44t106 -44t44 -106zM902 131q0 -62 -44 -106.5t-106 -44.5t-106 44.5t-44 106.5t44 106t106 44t106 -44t44 -106zM1404 131q0 -62 -44 -106.5t-106 -44.5t-106 44.5t-44 106.5t44 106t106 44
t106 -44t44 -106z" />
    <glyph glyph-name="nonbreakingspace" unicode="&#xa0;" horiz-adv-x="617" 
 />
    <glyph glyph-name="Agrave" unicode="&#xc0;" horiz-adv-x="1257" 
d="M918 0l-46 298h-524l-172 -298h-271l890 1485h93l301 -1485h-271zM760 1040l-301 -547h384zM736 1585l-153 333h280l35 -333h-162z" />
    <glyph glyph-name="Atilde" unicode="&#xc3;" horiz-adv-x="1257" 
d="M918 0l-46 298h-524l-172 -298h-271l890 1485h93l301 -1485h-271zM760 1040l-301 -547h384zM588 1655h-160q23 105 90 179t153 74q49 0 150.5 -43t124.5 -43q33 0 62 26t34 60h162q-19 -87 -90 -170t-150 -83q-32 0 -144 46.5t-149 46.5q-56 0 -83 -93z" />
    <glyph glyph-name="Otilde" unicode="&#xd5;" horiz-adv-x="1438" 
d="M99 545q0 391 213.5 668.5t555.5 277.5q263 0 405 -139.5t142 -403.5q0 -433 -218 -703t-597 -270q-232 0 -366.5 156.5t-134.5 413.5zM369 572q0 -169 67 -269t196 -100q238 0 376 214t138 511q0 336 -296 336q-208 0 -344.5 -220t-136.5 -472zM612 1655h-160
q23 105 90 179t153 74q49 0 150.5 -43t124.5 -43q33 0 62 26t34 60h162q-19 -87 -90 -170t-150 -83q-32 0 -144 46.5t-149 46.5q-56 0 -83 -93z" />
    <glyph glyph-name="OE" unicode="&#x152;" horiz-adv-x="2167" 
d="M2164 1237h-675l-61 -337h484l-41 -218h-481l-85 -454h664l-43 -228h-932l15 81q-184 -106 -409 -106q-233 0 -367 156t-134 414q0 392 213 669t556 277q233 0 379 -117l17 91h943zM369 572q0 -173 67.5 -271t195.5 -98q238 0 376 214t138 511q0 336 -296 336
q-208 0 -344.5 -219t-136.5 -473z" />
    <glyph glyph-name="oe" unicode="&#x153;" horiz-adv-x="1900" 
d="M1113 465q-2 -25 -2 -45q0 -122 59.5 -177t191.5 -55q63 0 142.5 33t131.5 79l-29 -263q-128 -57 -310 -57q-271 0 -377 167q-174 -167 -419 -167q-203 0 -316 109t-113 312q0 289 176.5 489.5t448.5 200.5q248 0 361 -157q178 157 437 157q172 0 275.5 -72t103.5 -204
q0 -181 -157 -284t-385 -103q-110 0 -219 37zM332 413q0 -229 197 -229q155 0 246.5 145.5t91.5 341.5q0 216 -197 216q-153 0 -245.5 -142.5t-92.5 -331.5zM1161 654q65 -19 141 -19q137 0 230.5 41.5t93.5 119.5q0 87 -190 87q-71 0 -155 -74.5t-120 -154.5z" />
    <glyph glyph-name="endash" unicode="&#x2013;" horiz-adv-x="752" 
d="M63 502v201h581v-201h-581z" />
    <glyph glyph-name="emdash" unicode="&#x2014;" horiz-adv-x="1504" 
d="M63 502v201h1369v-201h-1369z" />
    <glyph glyph-name="quotedblleft" unicode="&#x201c;" 
d="M391 948l-94 -60q-121 160 -121 338q0 116 46 200t130 84q60 0 108.5 -39t48.5 -98q0 -43 -14.5 -72t-37 -43t-85.5 -50q-48 -34 -48 -102q0 -42 67 -158zM821 948l-94 -60q-121 160 -121 338q0 116 46 200t130 84q60 0 108.5 -39t48.5 -98q0 -43 -14.5 -72t-37 -43
t-85.5 -50q-48 -34 -48 -102q0 -42 67 -158z" />
    <glyph glyph-name="quotedblright" unicode="&#x201d;" 
d="M301 901l-67 89q91 73 110.5 108t19.5 71t-49 95t-49 99q0 147 145 147q155 0 155 -177q0 -266 -265 -432zM731 901l-67 89q91 73 110.5 108t19.5 71t-49 95t-49 99q0 147 145 147q155 0 155 -177q0 -266 -265 -432z" />
    <glyph glyph-name="quoteleft" unicode="&#x2018;" horiz-adv-x="752" 
d="M449 948l-94 -60q-121 160 -121 338q0 116 46 200t130 84q60 0 108.5 -39t48.5 -98q0 -43 -14.5 -72t-37 -43t-85.5 -50q-48 -34 -48 -102q0 -42 67 -158z" />
    <glyph glyph-name="quoteright" unicode="&#x2019;" horiz-adv-x="752" 
d="M359 901l-67 89q91 73 110.5 108t19.5 71t-49 95t-49 99q0 147 145 147q155 0 155 -177q0 -266 -265 -432z" />
    <glyph glyph-name="divide" unicode="&#xf7;" 
d="M763 1020q0 -62 -44 -106.5t-106 -44.5t-106 44.5t-44 106.5t44 106t106 44t106 -44t44 -106zM1062 736v-201h-898v201h898zM763 230q0 -62 -44 -106.5t-106 -44.5t-106 44.5t-44 106.5t44 106t106 44t106 -44t44 -106z" />
    <glyph glyph-name="lozenge" unicode="&#x25ca;" horiz-adv-x="1229" 
d="M613 18l-618 617l618 617l617 -617zM613 1004l-369 -369l369 -369l368 369z" />
    <glyph glyph-name="ydieresis" unicode="&#xff;" horiz-adv-x="1155" 
d="M620 -107q-149 -311 -578 -313v241q283 1 363 183l52 120q-137 39 -185 288l-127 659h263q117 -704 149 -735l344 735h283zM815 1401q0 51 45 81.5t102 30.5q58 0 103 -31.5t45 -80.5q0 -51 -44.5 -82t-103.5 -31q-58 0 -102.5 31t-44.5 82zM342 1401q0 49 45 80.5
t103 31.5q57 0 102 -30.5t45 -81.5q0 -50 -45 -81.5t-102 -31.5q-59 0 -103.5 31t-44.5 82z" />
    <glyph glyph-name="Ydieresis" unicode="&#x178;" horiz-adv-x="1400" 
d="M848 648l-119 -648h-258l121 656l-345 809h271l236 -573l439 573h297zM965 1771q0 51 45 81.5t102 30.5q58 0 103 -31.5t45 -80.5q0 -51 -44.5 -82t-103.5 -31q-58 0 -102.5 31t-44.5 82zM492 1771q0 49 45 80.5t103 31.5q57 0 102 -30.5t45 -81.5q0 -50 -45 -81.5
t-102 -31.5q-59 0 -103.5 31t-44.5 82z" />
    <glyph glyph-name="fraction" unicode="&#x2044;" 
d="M256 -35h-188l884 1526h186z" />
    <glyph glyph-name="fraction" unicode="&#x2215;" 
d="M256 -35h-188l884 1526h186z" />
    <glyph glyph-name="euro" unicode="&#x20ac;" 
d="M39 519v151h116q8 81 25 159h-141v151h186q87 231 251 365q178 145 417 145q162 0 288 -58l-87 -231q-91 63 -212 63q-244 0 -389 -284h514l-50 -151h-524q-23 -79 -32 -159h496l-60 -151h-440q13 -140 81 -224q75 -92 205 -92q207 0 327 125v-249q-109 -104 -375 -104
q-219 0 -353 155q-128 150 -134 389h-109z" />
    <glyph glyph-name="guilsinglleft" unicode="&#x2039;" horiz-adv-x="752" 
d="M141 519v96l415 285v-197l-189 -140l189 -124v-197z" />
    <glyph glyph-name="guilsinglright" unicode="&#x203a;" horiz-adv-x="752" 
d="M181 242v197l189 124l-189 140v197l415 -285v-96z" />
    <glyph glyph-name="fi" unicode="&#xf001;" horiz-adv-x="1370" 
d="M1023 1415q0 67 47.5 111.5t115.5 44.5q67 0 115 -44.5t48 -111.5q0 -66 -48 -111t-115 -45t-115 44.5t-48 111.5zM1097 0h-254l162 870h-444l-160 -938q-26 -152 -141 -251.5t-269 -100.5l-53 166q71 16 128 71t70 125l167 928h-151l33 201h148q103 439 469 439
q104 0 177 -43l-50 -196q-81 36 -139 36q-144 0 -198 -236h705z" />
    <glyph glyph-name="fi" unicode="&#xfb01;" horiz-adv-x="1370" 
d="M1023 1415q0 67 47.5 111.5t115.5 44.5q67 0 115 -44.5t48 -111.5q0 -66 -48 -111t-115 -45t-115 44.5t-48 111.5zM1097 0h-254l162 870h-444l-160 -938q-26 -152 -141 -251.5t-269 -100.5l-53 166q71 16 128 71t70 125l167 928h-151l33 201h148q103 439 469 439
q104 0 177 -43l-50 -196q-81 36 -139 36q-144 0 -198 -236h705z" />
    <glyph glyph-name="fl" unicode="&#xf002;" horiz-adv-x="1320" 
d="M1217 84q-59 -94 -179 -94q-90 0 -142 59t-52 153q0 122 48 351l139 669q-101 85 -241 85q-144 0 -198 -236h246l-25 -201h-252l-160 -938q-26 -152 -141 -251.5t-269 -100.5l-53 166q71 16 128 71t70 125l167 928h-151l33 201h148q103 439 469 439q74 0 157 -25t116 -54
h1l17 79h248l-206 -997q-44 -213 -44 -304q0 -58 36 -91.5t90 -33.5z" />
    <glyph glyph-name="fl" unicode="&#xfb02;" horiz-adv-x="1320" 
d="M1217 84q-59 -94 -179 -94q-90 0 -142 59t-52 153q0 122 48 351l139 669q-101 85 -241 85q-144 0 -198 -236h246l-25 -201h-252l-160 -938q-26 -152 -141 -251.5t-269 -100.5l-53 166q71 16 128 71t70 125l167 928h-151l33 201h148q103 439 469 439q74 0 157 -25t116 -54
h1l17 79h248l-206 -997q-44 -213 -44 -304q0 -58 36 -91.5t90 -33.5z" />
    <glyph glyph-name="daggerdbl" unicode="&#x2021;" horiz-adv-x="940" 
d="M524 221l-81 -455l-129 -128l-80 128l80 455h-350l34 194h350l83 473h-350l35 194h350l53 303h210l-53 -303h350l-35 -194h-350l-83 -473h350l-34 -194h-350z" />
    <glyph glyph-name="periodcentered" unicode="&#x2219;" horiz-adv-x="752" 
d="M392 831q63 0 106.5 -43.5t43.5 -106.5t-43.5 -107t-106.5 -44q-62 0 -106 44.5t-44 106.5t44 106t106 44z" />
    <glyph glyph-name="quotesinglbase" unicode="&#x201a;" horiz-adv-x="752" 
d="M318 -414l-77 101q159 117 159 263q0 56 -58 101t-58 97q0 65 53 107t126 42q71 0 124 -58t53 -133q0 -302 -322 -520z" />
    <glyph glyph-name="quotedblbase" unicode="&#x201e;" 
d="M170 -414l-77 101q159 117 159 263q0 56 -58 101t-58 97q0 65 53 107t126 42q71 0 124 -58t53 -133q0 -302 -322 -520zM680 -414l-77 101q159 117 159 263q0 56 -58 101t-58 97q0 65 53 107t126 42q71 0 124 -58t53 -133q0 -302 -322 -520z" />
    <glyph glyph-name="perthousand" unicode="&#x2030;" horiz-adv-x="2135" 
d="M141 1027q0 194 109.5 329t284.5 135q250 0 250 -269q0 -189 -107.5 -321.5t-278.5 -132.5q-258 0 -258 259zM340 1058q0 -126 79 -126q82 0 126.5 83t44.5 200q0 112 -86 112q-75 0 -119.5 -81.5t-44.5 -187.5zM252 -20h-208l1190 1511h207zM712 240q0 195 109.5 329
t285.5 134q249 0 249 -269q0 -189 -107.5 -321.5t-278.5 -132.5q-258 0 -258 260zM911 271q0 -127 79 -127q82 0 126.5 81t44.5 203q0 111 -86 111q-75 0 -119.5 -81t-44.5 -187zM1422 240q0 195 109.5 329t285.5 134q249 0 249 -269q0 -189 -107.5 -321.5t-278.5 -132.5
q-258 0 -258 260zM1621 271q0 -127 79 -127q82 0 126.5 81t44.5 203q0 111 -86 111q-75 0 -119.5 -81t-44.5 -187z" />
    <glyph glyph-name="Acircumflex" unicode="&#xc2;" horiz-adv-x="1257" 
d="M918 0l-46 298h-524l-172 -298h-271l890 1485h93l301 -1485h-271zM760 1040l-301 -547h384zM942 1568l-118 143l-191 -146h-271l432 358h139l290 -355h-281z" />
    <glyph glyph-name="Ecircumflex" unicode="&#xca;" horiz-adv-x="1215" 
d="M1212 1237h-675l-61 -337h484l-41 -218h-484l-82 -454h664l-43 -228h-932l270 1465h943zM956 1568l-118 143l-191 -146h-271l432 358h139l290 -355h-281z" />
    <glyph glyph-name="Aacute" unicode="&#xc1;" horiz-adv-x="1257" 
d="M918 0l-46 298h-524l-172 -298h-271l890 1485h93l301 -1485h-271zM760 1040l-301 -547h384zM859 1585h-216l205 333h284z" />
    <glyph glyph-name="Edieresis" unicode="&#xcb;" horiz-adv-x="1215" 
d="M1212 1237h-675l-61 -337h484l-41 -218h-484l-82 -454h664l-43 -228h-932l270 1465h943zM888 1771q0 51 45 81.5t102 30.5q58 0 103 -31.5t45 -80.5q0 -51 -44.5 -82t-103.5 -31q-58 0 -102.5 31t-44.5 82zM415 1771q0 49 45 80.5t103 31.5q57 0 102 -30.5t45 -81.5
q0 -50 -45 -81.5t-102 -31.5q-59 0 -103.5 31t-44.5 82z" />
    <glyph glyph-name="Egrave" unicode="&#xc8;" horiz-adv-x="1215" 
d="M1212 1237h-675l-61 -337h484l-41 -218h-484l-82 -454h664l-43 -228h-932l270 1465h943zM700 1585l-153 333h280l35 -333h-162z" />
    <glyph glyph-name="Iacute" unicode="&#xcd;" horiz-adv-x="570" 
d="M329 0h-261l269 1465h262zM520 1585h-216l205 333h284z" />
    <glyph glyph-name="Icircumflex" unicode="&#xce;" horiz-adv-x="570" 
d="M329 0h-261l269 1465h262zM623 1568l-118 143l-191 -146h-271l432 358h139l290 -355h-281z" />
    <glyph glyph-name="Idieresis" unicode="&#xcf;" horiz-adv-x="570" 
d="M329 0h-261l269 1465h262zM595 1771q0 51 45 81.5t102 30.5q58 0 103 -31.5t45 -80.5q0 -51 -44.5 -82t-103.5 -31q-58 0 -102.5 31t-44.5 82zM122 1771q0 49 45 80.5t103 31.5q57 0 102 -30.5t45 -81.5q0 -50 -45 -81.5t-102 -31.5q-59 0 -103.5 31t-44.5 82z" />
    <glyph glyph-name="Igrave" unicode="&#xcc;" horiz-adv-x="570" 
d="M329 0h-261l269 1465h262zM399 1585l-153 333h280l35 -333h-162z" />
    <glyph glyph-name="Oacute" unicode="&#xd3;" horiz-adv-x="1438" 
d="M99 545q0 391 213.5 668.5t555.5 277.5q263 0 405 -139.5t142 -403.5q0 -433 -218 -703t-597 -270q-232 0 -366.5 156.5t-134.5 413.5zM369 572q0 -169 67 -269t196 -100q238 0 376 214t138 511q0 336 -296 336q-208 0 -344.5 -220t-136.5 -472zM935 1585h-216l205 333
h284z" />
    <glyph glyph-name="Ocircumflex" unicode="&#xd4;" horiz-adv-x="1438" 
d="M99 545q0 391 213.5 668.5t555.5 277.5q263 0 405 -139.5t142 -403.5q0 -433 -218 -703t-597 -270q-232 0 -366.5 156.5t-134.5 413.5zM369 572q0 -169 67 -269t196 -100q238 0 376 214t138 511q0 336 -296 336q-208 0 -344.5 -220t-136.5 -472zM1026 1568l-118 143
l-191 -146h-271l432 358h139l290 -355h-281z" />
    <glyph glyph-name="apple" unicode="&#xf000;" horiz-adv-x="1024" 
d="M128 350v768h768v-768h-768zM256 478h512v512h-512v-512z" />
    <glyph glyph-name="Ograve" unicode="&#xd2;" horiz-adv-x="1438" 
d="M99 545q0 391 213.5 668.5t555.5 277.5q263 0 405 -139.5t142 -403.5q0 -433 -218 -703t-597 -270q-232 0 -366.5 156.5t-134.5 413.5zM369 572q0 -169 67 -269t196 -100q238 0 376 214t138 511q0 336 -296 336q-208 0 -344.5 -220t-136.5 -472zM810 1585l-153 333h280
l35 -333h-162z" />
    <glyph glyph-name="Uacute" unicode="&#xda;" horiz-adv-x="1355" 
d="M1217 451q-42 -226 -210 -351t-416 -125q-207 0 -337.5 99.5t-130.5 274.5q0 53 11 113l184 1003h268l-187 -998q-5 -27 -5 -57q0 -99 61 -153t166 -54q134 0 223 73t113 205l183 984h264zM954 1585h-216l205 333h284z" />
    <glyph glyph-name="Ucircumflex" unicode="&#xdb;" horiz-adv-x="1355" 
d="M1217 451q-42 -226 -210 -351t-416 -125q-207 0 -337.5 99.5t-130.5 274.5q0 53 11 113l184 1003h268l-187 -998q-5 -27 -5 -57q0 -99 61 -153t166 -54q134 0 223 73t113 205l183 984h264zM1037 1568l-118 143l-191 -146h-271l432 358h139l290 -355h-281z" />
    <glyph glyph-name="Ugrave" unicode="&#xd9;" horiz-adv-x="1355" 
d="M1217 451q-42 -226 -210 -351t-416 -125q-207 0 -337.5 99.5t-130.5 274.5q0 53 11 113l184 1003h268l-187 -998q-5 -27 -5 -57q0 -99 61 -153t166 -54q134 0 223 73t113 205l183 984h264zM801 1585l-153 333h280l35 -333h-162z" />
    <glyph glyph-name="dotlessi" unicode="&#x131;" horiz-adv-x="669" 
d="M397 0h-254l162 870h-137l42 201h387z" />
    <glyph glyph-name="circumflex" unicode="&#x2c6;" 
d="M843 1285l-118 143l-191 -146h-271l432 358h139l290 -355h-281z" />
    <glyph glyph-name="tilde" unicode="&#x2dc;" 
d="M549 1285h-160q23 105 90 179t153 74q49 0 150.5 -43t124.5 -43q33 0 62 26t34 60h162q-19 -87 -90 -170t-150 -83q-32 0 -144 46.5t-149 46.5q-56 0 -83 -93z" />
    <glyph glyph-name="macron" unicode="&#x2c9;" 
d="M1151 1285h-809l38 141h809z" />
    <glyph glyph-name="breve" unicode="&#x2d8;" 
d="M448 1610h214q-16 -55 -16 -73q0 -68 130 -68q162 0 192 141h214q-70 -325 -434 -325q-313 0 -313 236q0 32 13 89z" />
    <glyph glyph-name="dotaccent" unicode="&#x2d9;" 
d="M648 1403q0 52 46 84.5t106 32.5q58 0 105.5 -32.5t47.5 -84.5t-46.5 -85t-106.5 -33q-59 0 -105.5 32.5t-46.5 85.5z" />
    <glyph glyph-name="ring" unicode="&#x2da;" 
d="M771 1285q-99 0 -173 60t-74 150t74 149.5t173 59.5q100 0 173 -59t73 -150t-73.5 -150.5t-172.5 -59.5zM774 1583q-51 0 -89 -26t-38 -66q0 -39 38 -65t89 -26t89 26t38 65q0 40 -38 66t-89 26z" />
    <glyph glyph-name="cedilla" unicode="&#xb8;" 
d="M338 -450v123q18 -5 39 -5q58 0 108 25q63 31 63 83q0 35 -29 64.5t-64 30.5l62 86q230 -15 230 -186q0 -115 -109 -176q-89 -50 -213 -50q-15 0 -87 5z" />
    <glyph glyph-name="hungarumlaut" unicode="&#x2dd;" 
d="M979 1285h-215l177 283h286zM609 1285h-215l177 283h286z" />
    <glyph glyph-name="ogonek" unicode="&#x2db;" 
d="M630 169l69 -169q-57 -16 -92 -58t-35 -87q0 -44 69 -44q86 0 166 61v-205q-132 -40 -204 -40q-115 0 -191.5 57t-76.5 153q0 201 295 332z" />
    <glyph glyph-name="caron" unicode="&#x2c7;" 
d="M788 1285h-140l-281 358h255l130 -146l178 143h298z" />
    <glyph glyph-name="Lslash" unicode="&#x141;" horiz-adv-x="1082" 
d="M661 887l-202 -87l-105 -572h662l-42 -228h-924l124 677l-163 -70v168l197 85l111 605h262l-88 -481l168 75v-172z" />
    <glyph glyph-name="lslash" unicode="&#x142;" horiz-adv-x="655" 
d="M477 84q-59 -94 -179 -94q-90 0 -142 59t-52 153q0 122 48 351l29 138l-148 -71l-1 195l194 90l127 605h248l-98 -477l163 76v-185l-206 -99l-65 -312q-44 -211 -44 -304q0 -58 36 -91.5t90 -33.5z" />
    <glyph glyph-name="Scaron" unicode="&#x160;" horiz-adv-x="1027" 
d="M940 1176q-116 85 -236 85q-241 0 -241 -182q0 -77 128 -184l151 -128q70 -60 97 -87.5t57 -76.5t45 -99t15 -102q0 -201 -150.5 -314t-390.5 -113q-197 0 -372 85l84 257q134 -101 311 -101q107 0 177.5 45.5t70.5 129.5q0 83 -128 183l-157 125q-72 58 -97.5 84
t-53.5 72.5t-42 95.5t-14 101q0 202 134 320t351 118q72 0 184 -16.5t157 -37.5zM728 1565h-140l-281 358h255l130 -146l178 143h298z" />
    <glyph glyph-name="scaron" unicode="&#x161;" horiz-adv-x="940" 
d="M791 778q-120 105 -220 105q-62 0 -107.5 -28.5t-45.5 -76.5q0 -59 108.5 -114t166.5 -87.5t95 -88t37 -127.5q0 -177 -132.5 -279t-338.5 -102q-176 0 -344 99l132 227q125 -118 245 -118q76 0 125.5 38t49.5 103q0 54 -94 103l-166 89.5t-109.5 99t-37.5 129.5
q0 156 124.5 248.5t305.5 92.5q124 0 322 -84zM611 1285h-140l-281 358h255l130 -146l178 143h298z" />
    <glyph glyph-name="Zcaron" unicode="&#x17d;" horiz-adv-x="1252" 
d="M482 228h597l-43 -228h-949v83l793 1154h-602l42 228h928v-83zM842 1565h-140l-281 358h255l130 -146l178 143h298z" />
    <glyph glyph-name="zcaron" unicode="&#x17e;" horiz-adv-x="1091" 
d="M447 217h508l-41 -217h-886v85l626 769h-525l41 217h892v-89zM673 1285h-140l-281 358h255l130 -146l178 143h298z" />
    <glyph glyph-name="brokenbar" unicode="&#xa6;" 
d="M504 673v837h206v-837h-206zM504 -420v837h206v-837h-206z" />
    <glyph glyph-name="Eth" unicode="&#xd0;" horiz-adv-x="1340" 
d="M35 672l40 223h132l103 567q146 26 274 26q335 0 518 -153t183 -443q0 -407 -242 -649.5t-646 -242.5h-354l123 672h-131zM465 895h273l-40 -223h-272l-77 -439q44 -4 80 -4q268 0 426 189t158 485q0 162 -109 260t-280 98q-48 0 -97 -10z" />
    <glyph glyph-name="eth" unicode="&#xf0;" horiz-adv-x="1167" 
d="M807 1079q-52 120 -82 150l-179 -84l-50 103l169 79q-45 57 -147 177l272 49l99 -122l174 84l59 -110l-170 -80q80 -127 127.5 -316.5t47.5 -368.5q0 -279 -178 -469.5t-448 -190.5q-203 0 -316 108.5t-113 311.5q0 289 176.5 488.5t448.5 199.5q54 0 110 -9zM332 412
q0 -229 197 -229q155 0 246.5 145t91.5 341q0 216 -197 216q-153 0 -245.5 -142t-92.5 -331z" />
    <glyph glyph-name="Yacute" unicode="&#xdd;" horiz-adv-x="1400" 
d="M848 648l-119 -648h-258l121 656l-345 809h271l236 -573l439 573h297zM920 1585h-216l205 333h284z" />
    <glyph glyph-name="Thorn" unicode="&#xde;" horiz-adv-x="1150" 
d="M362 298l-54 -298h-259l268 1465h259l-32 -178q64 9 120 9q238 0 377 -111t139 -316q0 -280 -163 -435t-462 -155q-92 0 -193 19zM501 1059l-97 -538q79 -21 155 -21q167 0 259.5 90t92.5 254q0 118 -61 174.5t-205 56.5q-66 0 -144 -16z" />
    <glyph glyph-name="thorn" unicode="&#xfe;" horiz-adv-x="1226" 
d="M305 29l-80 -449h-250l329 1931h259l-95 -518q131 98 260 98q429 0 429 -416q0 -305 -176 -500t-465 -195q-115 0 -211 49zM438 771l-94 -529q49 -51 145 -51q197 0 301.5 119.5t104.5 339.5q0 102 -63 163.5t-173 61.5q-50 0 -119 -32.5t-102 -71.5z" />
    <glyph glyph-name="minus" unicode="&#x2212;" 
d="M1062 736v-201h-898v201h898z" />
    <glyph glyph-name="onesuperior" unicode="&#xb9;" horiz-adv-x="980" 
d="M687 565h-166l100 613l-155 -86l24 186q192 97 263 200h81z" />
    <glyph glyph-name="twosuperior" unicode="&#xb2;" horiz-adv-x="952" 
d="M567 731h270l-27 -165h-526v63l303 384q119 151 119 219q0 47 -36.5 73t-88.5 26q-57 0 -113 -89l-118 84q29 73 100.5 119t152.5 46q120 0 196.5 -68t76.5 -185q0 -62 -49.5 -160t-259.5 -347z" />
    <glyph glyph-name="threesuperior" unicode="&#xb3;" horiz-adv-x="949" 
d="M737 1040q79 -57 79 -164q0 -324 -351 -324q-138 0 -220 101l80 157q67 -99 157 -99q166 0 166 151q0 105 -184 105l26 144q85 0 139.5 38t54.5 102q0 38 -31.5 59.5t-74.5 21.5q-59 0 -119 -55l-81 115q86 99 224 99q100 0 177.5 -65t77.5 -158q0 -148 -120 -228z" />
    <glyph glyph-name="onehalf" unicode="&#xbd;" horiz-adv-x="1796" 
d="M434 565h-166l100 613l-155 -86l24 186q192 97 263 200h81zM504 -35h-188l884 1526h186zM1324 165h270l-27 -165h-526v63l303 384q119 151 119 219q0 47 -36.5 73t-88.5 26q-57 0 -113 -89l-118 84q29 73 100.5 119t152.5 46q120 0 196.5 -68t76.5 -185q0 -62 -49.5 -160
t-259.5 -347z" />
    <glyph glyph-name="onequarter" unicode="&#xbc;" horiz-adv-x="1796" 
d="M451 565h-166l100 613l-155 -86l24 186q192 97 263 200h81zM531 -35h-188l884 1526h186zM1624 231h-97l-37 -231h-166l37 231h-385l18 110l560 572h83l-87 -532h97zM1201 381h185l37 214z" />
    <glyph glyph-name="threequarters" unicode="&#xbe;" horiz-adv-x="1796" 
d="M624 1040q79 -57 79 -164q0 -324 -351 -324q-138 0 -220 101l80 157q67 -99 157 -99q166 0 166 151q0 105 -184 105l26 144q85 0 139.5 38t54.5 102q0 38 -31.5 59.5t-74.5 21.5q-59 0 -119 -55l-81 115q86 99 224 99q100 0 177.5 -65t77.5 -158q0 -148 -120 -228z
M594 -35h-188l884 1526h186zM1625 231h-97l-37 -231h-166l37 231h-385l18 110l560 572h83l-87 -532h97zM1202 381h185l37 214z" />
    <glyph glyph-name="mu1" unicode="&#xb5;" horiz-adv-x="1141" 
d="M926 0h-250l17 80q-134 -97 -336 -97q-52 0 -103 13l-76 -416h-251l275 1491h254l-127 -679q-8 -43 -8 -72q0 -130 146 -130q119 0 199.5 77.5t100.5 185.5l110 618h251z" />
    <glyph glyph-name="Ohm" unicode="&#x2126;" horiz-adv-x="1370" 
d="M1019 193h241l-33 -192l-550 -1l31 181q224 171 315 343t91 400q0 185 -75.5 265t-240.5 80q-178 0 -318 -183t-140 -427q0 -139 54.5 -276t144.5 -200l-32 -183l-550 1l34 192l226 -1q-143 166 -143 404q0 380 209.5 637.5t555.5 257.5q237 0 387 -149t150 -392
q0 -482 -357 -757z" />
    <glyph glyph-name="Delta" unicode="&#x2206;" horiz-adv-x="1198" 
d="M-84 0l27 153l767 1312h186l257 -1312l-27 -153h-1210zM727 1076l-481 -855h640z" />
    <glyph glyph-name="yacute" unicode="&#xfd;" horiz-adv-x="1155" 
d="M620 -107q-149 -311 -578 -313v241q283 1 363 183l52 120q-137 39 -185 288l-127 659h263q117 -704 149 -735l344 735h283zM710 1285h-216l205 333h284z" />
    <glyph glyph-name="multiply" unicode="&#xd7;" 
d="M759 629l314 -315l-143 -142l-314 315l-317 -317l-142 141l317 317l-321 321l142 142l321 -321l317 317l143 -141z" />
    <glyph glyph-name="sfthyphen" unicode="&#xad;" horiz-adv-x="752" 
d="M88 476l42 235h529l-42 -235h-529z" />
    <glyph glyph-name="dotlessj" unicode="&#xf006;" horiz-adv-x="794" 
d="M512 15q-41 -222 -191 -328.5t-466 -106.5l11 221q140 0 216 19t121.5 69t60.5 132l152 849h-144l47 201h389z" />
    <glyph glyph-name="f007" unicode="&#xf007;" horiz-adv-x="752" 
d="M427 1715l77 -101q-95 -90 -95 -117q0 -29 37.5 -68.5t37.5 -92.5t-39.5 -87t-93.5 -34q-128 0 -128 164q0 194 204 336z" />
    <glyph glyph-name="franc" unicode="&#x20a3;" horiz-adv-x="1807" 
d="M1240 1237h-705l-61 -337h515l-41 -218h-515l-125 -682h-267l272 1465h969zM1760 817q-89 66 -157 66q-97 0 -177.5 -84.5t-101.5 -193.5l-113 -605h-251l200 1071h251l-17 -93q133 113 294 113q41 0 147 -19z" />
    <glyph glyph-name="Gbreve" unicode="&#x11e;" horiz-adv-x="1385" 
d="M1204 133q-226 -158 -553 -158q-252 0 -409.5 161.5t-157.5 409.5q0 435 239.5 689.5t652.5 254.5q224 0 333 -100l-78 -217q-147 89 -293 89q-264 0 -424 -193.5t-160 -484.5q0 -180 99 -280.5t271 -100.5q143 0 250 79l53 290h-203l40 218h461zM581 1910h214
q-16 -55 -16 -73q0 -68 130 -68q162 0 192 141h214q-70 -325 -434 -325q-313 0 -313 236q0 32 13 89z" />
    <glyph glyph-name="gbreve" unicode="&#x11f;" horiz-adv-x="1096" 
d="M995 885q22 -50 22 -120q0 -156 -67.5 -270t-222.5 -185t-170 -96q68 13 106 13q112 0 191 -68.5t79 -174.5q0 -194 -136.5 -299t-395.5 -105q-97 0 -212.5 38t-188.5 94l109 189q143 -102 297 -102q278 0 278 150q0 32 -28.5 53t-86.5 32l-191 34q-107 33 -107 124
q0 53 88 107q-108 31 -176.5 116.5t-68.5 190.5q0 216 143 350.5t367 134.5q138 0 233 -59l94 102l147 -146zM368 628q0 -80 36 -131t99 -51q110 0 182 87.5t72 212.5q0 141 -147 141q-111 0 -176.5 -72.5t-65.5 -186.5zM362 1610h214q-16 -55 -16 -73q0 -68 130 -68
q162 0 192 141h214q-70 -325 -434 -325q-313 0 -313 236q0 32 13 89z" />
    <glyph glyph-name="Idotaccent" unicode="&#x130;" horiz-adv-x="570" 
d="M329 0h-261l269 1465h262zM348 1773q0 52 46 84.5t106 32.5q58 0 105.5 -32.5t47.5 -84.5t-46.5 -85t-106.5 -33q-59 0 -105.5 32.5t-46.5 85.5z" />
    <glyph glyph-name="Scedilla" unicode="&#x15e;" horiz-adv-x="1027" 
d="M940 1176q-116 85 -236 85q-241 0 -241 -182q0 -77 128 -184l151 -128q70 -60 97 -87.5t57 -76.5t45 -99t15 -102q0 -201 -150.5 -314t-390.5 -113q-197 0 -372 85l84 257q134 -101 311 -101q107 0 177.5 45.5t70.5 129.5q0 83 -128 183l-157 125q-72 58 -97.5 84
t-53.5 72.5t-42 95.5t-14 101q0 202 134 320t351 118q72 0 184 -16.5t157 -37.5zM188 -450v123q18 -5 39 -5q58 0 108 25q63 31 63 83q0 35 -29 64.5t-64 30.5l62 86q230 -15 230 -186q0 -115 -109 -176q-89 -50 -213 -50q-15 0 -87 5z" />
    <glyph glyph-name="scedilla" unicode="&#x15f;" horiz-adv-x="940" 
d="M791 778q-120 105 -220 105q-62 0 -107.5 -28.5t-45.5 -76.5q0 -59 108.5 -114t166.5 -87.5t95 -88t37 -127.5q0 -177 -132.5 -279t-338.5 -102q-176 0 -344 99l132 227q125 -118 245 -118q76 0 125.5 38t49.5 103q0 54 -94 103l-166 89.5t-109.5 99t-37.5 129.5
q0 156 124.5 248.5t305.5 92.5q124 0 322 -84zM111 -450v123q18 -5 39 -5q58 0 108 25q63 31 63 83q0 35 -29 64.5t-64 30.5l62 86q230 -15 230 -186q0 -115 -109 -176q-89 -50 -213 -50q-15 0 -87 5z" />
    <glyph glyph-name="Cacute" unicode="&#x106;" horiz-adv-x="1255" 
d="M1165 1183q-114 81 -253 81q-225 0 -377.5 -214.5t-152.5 -475.5q0 -169 83 -270t231 -101q230 0 361 125l-5 -229q-142 -124 -409 -124q-238 0 -384 156.5t-146 406.5q0 404 224.5 678t586.5 274q177 0 314 -58zM963 1585h-216l205 333h284z" />
    <glyph glyph-name="cacute" unicode="&#x107;" horiz-adv-x="1009" 
d="M927 806q-105 77 -212 77q-172 0 -276.5 -128.5t-104.5 -321.5q0 -100 59 -171t152 -71q134 0 315 114l-30 -261q-153 -64 -315 -64q-203 0 -321.5 112.5t-118.5 309.5q0 299 173 494t453 195q160 0 277 -66zM710 1285h-216l205 333h284z" />
    <glyph glyph-name="Ccaron" unicode="&#x10c;" horiz-adv-x="1255" 
d="M1165 1183q-114 81 -253 81q-225 0 -377.5 -214.5t-152.5 -475.5q0 -169 83 -270t231 -101q230 0 361 125l-5 -229q-142 -124 -409 -124q-238 0 -384 156.5t-146 406.5q0 404 224.5 678t586.5 274q177 0 314 -58zM951 1565h-140l-281 358h255l130 -146l178 143h298z" />
    <glyph glyph-name="ccaron" unicode="&#x10d;" horiz-adv-x="1009" 
d="M927 806q-105 77 -212 77q-172 0 -276.5 -128.5t-104.5 -321.5q0 -100 59 -171t152 -71q134 0 315 114l-30 -261q-153 -64 -315 -64q-203 0 -321.5 112.5t-118.5 309.5q0 299 173 494t453 195q160 0 277 -66zM743 1285h-140l-281 358h255l130 -146l178 143h298z" />
    <glyph glyph-name="dcroat" unicode="&#x111;" horiz-adv-x="1215" 
d="M1328 1198h-142l-217 -1198h-249l19 100q-83 -120 -275 -120q-188 0 -294 110.5t-106 300.5q0 307 171 503.5t455 196.5q54 0 121 -21t97 -46l33 174h-271l30 150h269l31 162h242l-29 -162h145zM707 880q-173 0 -275.5 -127t-102.5 -323q0 -244 202 -244q218 0 283 348
l48 256q-48 90 -155 90z" />
    <glyph glyph-name="overscore" unicode="&#xaf;" 
d="M-8 1466v209h1215v-209h-1215z" />
    <glyph glyph-name="commaaccenthigh" unicode="&#xf005;" horiz-adv-x="752" 
d="M292 1048l-63 85q66 50 81 73.5t15 49.5t-34.5 60.5t-34.5 75.5q0 118 117 118q123 0 123 -139q0 -196 -204 -323z" />
    <glyph glyph-name="middot" unicode="&#xb7;" horiz-adv-x="752" 
d="M220 689q0 66 46.5 112.5t112.5 46.5t112.5 -46.5t46.5 -112.5t-46.5 -112.5t-112.5 -46.5t-112.5 46.5t-46.5 112.5z" />
    <glyph glyph-name="Abreve" unicode="&#x102;" horiz-adv-x="1257" 
d="M918 0l-46 298h-524l-172 -298h-271l890 1485h93l301 -1485h-271zM760 1040l-301 -547h384zM557 1910h214q-16 -55 -16 -73q0 -68 130 -68q162 0 192 141h214q-70 -325 -434 -325q-313 0 -313 236q0 32 13 89z" />
    <glyph glyph-name="abreve" unicode="&#x103;" horiz-adv-x="1214" 
d="M988 384q-7 -37 -7 -82q0 -220 34 -302h-156q-70 0 -104 107q-128 -127 -319 -127q-174 0 -269.5 98t-95.5 273q0 305 184.5 522.5t465.5 217.5q271 0 391 -50zM699 887q-168 0 -268 -160.5t-100 -369.5q0 -173 170 -173q108 0 188.5 133t143.5 550q-71 20 -134 20z
M448 1610h214q-16 -55 -16 -73q0 -68 130 -68q162 0 192 141h214q-70 -325 -434 -325q-313 0 -313 236q0 32 13 89z" />
    <glyph glyph-name="Aogonek" unicode="&#x104;" horiz-adv-x="1257" 
d="M894 157l-22 141h-524l-172 -298h-271l890 1485h93l301 -1485h-200q-13 0 -48 -20.5t-57 -54.5t-22 -70q0 -44 69 -44q86 0 166 61v-205q-132 -40 -204 -40q-115 0 -191.5 57t-76.5 153q0 193 269 320zM760 1040l-301 -547h384z" />
    <glyph glyph-name="aogonek" unicode="&#x105;" horiz-adv-x="1214" 
d="M778 56q-14 23 -23 51q-128 -127 -319 -127q-174 0 -269.5 98t-95.5 273q0 305 184.5 522.5t465.5 217.5q271 0 391 -50l-124 -657q-7 -37 -7 -82q0 -220 34 -302h-6q-13 0 -48 -20.5t-57 -54.5t-22 -70q0 -44 69 -44q86 0 166 61v-205q-132 -40 -204 -40
q-115 0 -191.5 57t-76.5 153q0 131 133 219zM699 887q-168 0 -268 -160.5t-100 -369.5q0 -173 170 -173q108 0 188.5 133t143.5 550q-71 20 -134 20z" />
    <glyph glyph-name="Dcaron" unicode="&#x10e;" horiz-adv-x="1295" 
d="M397 0h-354l267 1462q146 26 274 26q335 0 518 -153t183 -443q0 -407 -242 -649.5t-646 -242.5zM527 1251l-178 -1018q44 -4 80 -4q268 0 426 189t158 485q0 162 -109 260t-280 98q-48 0 -97 -10zM770 1565h-140l-281 358h255l130 -146l178 143h298z" />
    <glyph glyph-name="dcaron" unicode="&#x10f;" horiz-adv-x="1446" 
d="M969 0h-249l19 100q-83 -120 -275 -120q-188 0 -294 110.5t-106 300.5q0 307 171 503.5t455 196.5q54 0 121 -21t97 -46l92 486h242zM707 880q-173 0 -275.5 -127t-102.5 -323q0 -244 202 -244q218 0 283 348l48 256q-48 90 -155 90zM1397 1048l-63 85q66 50 81 73.5
t15 49.5t-34.5 60.5t-34.5 75.5q0 118 117 118q123 0 123 -139q0 -196 -204 -323z" />
    <glyph glyph-name="Dslash" unicode="&#x110;" horiz-adv-x="1316" 
d="M35 672l40 223h132l103 567q146 26 274 26q335 0 518 -153t183 -443q0 -407 -242 -649.5t-646 -242.5h-354l123 672h-131zM465 895h273l-40 -223h-272l-77 -439q44 -4 80 -4q268 0 426 189t158 485q0 162 -109 260t-280 98q-48 0 -97 -10z" />
    <glyph glyph-name="Eogonek" unicode="&#x118;" horiz-adv-x="1215" 
d="M581 0h-539l270 1465h943l-43 -228h-675l-61 -337h484l-41 -218h-484l-82 -454h664l-43 -228h-85q-13 0 -48 -20.5t-57 -54.5t-22 -70q0 -44 69 -44q86 0 166 61v-205q-132 -40 -204 -40q-115 0 -191.5 57t-76.5 153q0 89 56 163z" />
    <glyph glyph-name="eogonek" unicode="&#x119;" horiz-adv-x="1130" 
d="M390 -2q-145 41 -226 158t-81 292q0 276 177.5 459.5t464.5 183.5q169 0 274 -71.5t105 -204.5q0 -181 -156.5 -284t-385.5 -103q-112 0 -219 37q-2 -26 -2 -45q0 -112 66.5 -172t184.5 -60q63 0 145 34.5t129 77.5l-29 -263q-62 -28 -158 -44q-107 -43 -107 -138
q0 -44 69 -44q86 0 166 61v-205q-132 -40 -204 -40q-115 0 -191.5 57t-76.5 153q0 88 55 161zM391 654q65 -19 141 -19q136 0 230 41.5t94 119.5q0 87 -190 87q-75 0 -153 -65.5t-122 -163.5z" />
    <glyph glyph-name="Ecaron" unicode="&#x11a;" horiz-adv-x="1215" 
d="M1212 1237h-675l-61 -337h484l-41 -218h-484l-82 -454h664l-43 -228h-932l270 1465h943zM841 1565h-140l-281 358h255l130 -146l178 143h298z" />
    <glyph glyph-name="ecaron" unicode="&#x11b;" horiz-adv-x="1130" 
d="M343 465q-2 -26 -2 -45q0 -112 66.5 -172t184.5 -60q63 0 145 34.5t129 77.5l-29 -263q-127 -57 -310 -57q-198 0 -321 125t-123 343q0 276 177.5 459.5t464.5 183.5q169 0 274 -71.5t105 -204.5q0 -181 -156.5 -284t-385.5 -103q-112 0 -219 37zM391 654q65 -19 141 -19
q136 0 230 41.5t94 119.5q0 87 -190 87q-75 0 -153 -65.5t-122 -163.5zM838 1285h-140l-281 358h255l130 -146l178 143h298z" />
    <glyph glyph-name="Lacute" unicode="&#x139;" horiz-adv-x="1082" 
d="M974 0h-924l269 1465h262l-227 -1237h662zM632 1585h-216l205 333h284z" />
    <glyph glyph-name="lacute" unicode="&#x13a;" horiz-adv-x="655" 
d="M477 84q-59 -94 -179 -94q-90 0 -142 59t-52 153q0 122 48 351l201 957h248l-206 -997q-44 -213 -44 -304q0 -58 36 -91.5t90 -33.5zM673 1585h-216l205 333h284z" />
    <glyph glyph-name="Lcaron" unicode="&#x13d;" horiz-adv-x="1082" 
d="M974 0h-924l269 1465h262l-227 -1237h662zM854 1048l-63 85q66 50 81 73.5t15 49.5t-34.5 60.5t-34.5 75.5q0 118 117 118q123 0 123 -139q0 -196 -204 -323z" />
    <glyph glyph-name="lcaron" unicode="&#x13e;" horiz-adv-x="830" 
d="M477 84q-59 -94 -179 -94q-90 0 -142 59t-52 153q0 122 48 351l201 957h248l-206 -997q-44 -213 -44 -304q0 -58 36 -91.5t90 -33.5zM765 1048l-63 85q66 50 81 73.5t15 49.5t-34.5 60.5t-34.5 75.5q0 118 117 118q123 0 123 -139q0 -196 -204 -323z" />
    <glyph glyph-name="Ldot" unicode="&#x13f;" horiz-adv-x="1082" 
d="M974 0h-924l269 1465h262l-227 -1237h662zM864 961q63 0 106.5 -43.5t43.5 -106.5t-43.5 -107t-106.5 -44q-62 0 -106 44.5t-44 106.5t44 106t106 44z" />
    <glyph glyph-name="ldot" unicode="&#x140;" horiz-adv-x="915" 
d="M470 84q-59 -94 -179 -94q-90 0 -142 59t-52 153q0 122 48 351l201 957h248l-206 -997q-44 -213 -44 -304q0 -58 36 -91.5t90 -33.5zM785 961q63 0 106.5 -43.5t43.5 -106.5t-43.5 -107t-106.5 -44q-62 0 -106 44.5t-44 106.5t44 106t106 44z" />
    <glyph glyph-name="Nacute" unicode="&#x143;" horiz-adv-x="1352" 
d="M1113 -20h-101l-540 947l-162 -927h-258l269 1465h120l529 -908l159 908h257zM922 1585h-216l205 333h284z" />
    <glyph glyph-name="nacute" unicode="&#x144;" horiz-adv-x="1151" 
d="M947 0h-259l117 624q14 75 14 126q0 133 -157 133q-134 0 -241 -113l-143 -770h-251l151 803q4 21 4 58q0 89 -29 190l245 45l23 -120q132 115 331 115q330 0 330 -309q0 -55 -14 -130zM774 1285h-216l205 333h284z" />
    <glyph glyph-name="Ncaron" unicode="&#x147;" horiz-adv-x="1352" 
d="M1113 -20h-101l-540 947l-162 -927h-258l269 1465h120l529 -908l159 908h257zM902 1565h-140l-281 358h255l130 -146l178 143h298z" />
    <glyph glyph-name="ncaron" unicode="&#x148;" horiz-adv-x="1151" 
d="M947 0h-259l117 624q14 75 14 126q0 133 -157 133q-134 0 -241 -113l-143 -770h-251l151 803q4 21 4 58q0 89 -29 190l245 45l23 -120q132 115 331 115q330 0 330 -309q0 -55 -14 -130zM748 1285h-140l-281 358h255l130 -146l178 143h298z" />
    <glyph glyph-name="Odblacute" unicode="&#x150;" horiz-adv-x="1438" 
d="M99 545q0 391 213.5 668.5t555.5 277.5q263 0 405 -139.5t142 -403.5q0 -433 -218 -703t-597 -270q-232 0 -366.5 156.5t-134.5 413.5zM369 572q0 -169 67 -269t196 -100q238 0 376 214t138 511q0 336 -296 336q-208 0 -344.5 -220t-136.5 -472zM1192 1585h-215l177 283
h286zM822 1585h-215l177 283h286z" />
    <glyph glyph-name="odblacute" unicode="&#x151;" horiz-adv-x="1167" 
d="M72 401q0 290 177 490t448 200q207 0 319 -107.5t112 -305.5q0 -296 -175 -497t-452 -201q-203 0 -316 108.5t-113 312.5zM332 413q0 -229 197 -229q156 0 247 144.5t91 342.5q0 216 -197 216q-153 0 -245.5 -142.5t-92.5 -331.5zM979 1285h-215l177 283h286zM609 1285
h-215l177 283h286z" />
    <glyph glyph-name="Racute" unicode="&#x154;" horiz-adv-x="1277" 
d="M845 649l327 -649h-293l-280 606q-68 1 -167 8l-113 -614h-268l268 1465q292 15 383 15q237 0 374.5 -91.5t137.5 -264.5q0 -176 -100.5 -305.5t-268.5 -169.5zM546 1240l-75 -410q59 -6 105 -6q378 0 378 240q0 101 -72.5 143.5t-240.5 42.5q-14 0 -95 -10zM762 1585
h-216l205 333h284z" />
    <glyph glyph-name="racute" unicode="&#x155;" horiz-adv-x="915" 
d="M869 817q-89 66 -157 66q-97 0 -177.5 -84.5t-101.5 -193.5l-113 -605h-251l200 1071h251l-17 -93q133 113 294 113q41 0 147 -19zM684 1285h-216l205 333h284z" />
    <glyph glyph-name="Rcaron" unicode="&#x158;" horiz-adv-x="1277" 
d="M845 649l327 -649h-293l-280 606q-68 1 -167 8l-113 -614h-268l268 1465q292 15 383 15q237 0 374.5 -91.5t137.5 -264.5q0 -176 -100.5 -305.5t-268.5 -169.5zM546 1240l-75 -410q59 -6 105 -6q378 0 378 240q0 101 -72.5 143.5t-240.5 42.5q-14 0 -95 -10zM820 1568
h-140l-281 358h255l130 -146l178 143h298z" />
    <glyph glyph-name="rcaron" unicode="&#x159;" horiz-adv-x="915" 
d="M869 817q-89 66 -157 66q-97 0 -177.5 -84.5t-101.5 -193.5l-113 -605h-251l200 1071h251l-17 -93q133 113 294 113q41 0 147 -19zM692 1285h-140l-281 358h255l130 -146l178 143h298z" />
    <glyph glyph-name="Sacute" unicode="&#x15a;" horiz-adv-x="1027" 
d="M940 1176q-116 85 -236 85q-241 0 -241 -182q0 -77 128 -184l151 -128q70 -60 97 -87.5t57 -76.5t45 -99t15 -102q0 -201 -150.5 -314t-390.5 -113q-197 0 -372 85l84 257q134 -101 311 -101q107 0 177.5 45.5t70.5 129.5q0 83 -128 183l-157 125q-72 58 -97.5 84
t-53.5 72.5t-42 95.5t-14 101q0 202 134 320t351 118q72 0 184 -16.5t157 -37.5zM770 1585h-216l205 333h284z" />
    <glyph glyph-name="sacute" unicode="&#x15b;" horiz-adv-x="940" 
d="M791 778q-120 105 -220 105q-62 0 -107.5 -28.5t-45.5 -76.5q0 -59 108.5 -114t166.5 -87.5t95 -88t37 -127.5q0 -177 -132.5 -279t-338.5 -102q-176 0 -344 99l132 227q125 -118 245 -118q76 0 125.5 38t49.5 103q0 54 -94 103l-166 89.5t-109.5 99t-37.5 129.5
q0 156 124.5 248.5t305.5 92.5q124 0 322 -84zM653 1285h-216l205 333h284z" />
    <glyph glyph-name="Tcedilla" unicode="&#x162;" horiz-adv-x="1403" 
d="M1391 1237h-462l-226 -1237h-263l226 1237h-466l42 228h1191zM439 -552l-63 85q66 50 81 73.5t15 49.5t-34.5 60.5t-34.5 75.5q0 118 117 118q123 0 123 -139q0 -196 -204 -323z" />
    <glyph glyph-name="tcedilla" unicode="&#x163;" horiz-adv-x="897" 
d="M841 870h-295l-108 -475q-13 -57 -13 -95q0 -110 124 -110q55 0 180 52v-225q-108 -37 -294 -37q-122 0 -196 76t-74 198q0 40 9 79l121 537h-124l43 201h124l42 219l286 104l-75 -323h293zM292 -552l-63 85q66 50 81 73.5t15 49.5t-34.5 60.5t-34.5 75.5q0 118 117 118
q123 0 123 -139q0 -196 -204 -323z" />
    <glyph glyph-name="Tcaron" unicode="&#x164;" horiz-adv-x="1403" 
d="M1391 1237h-462l-226 -1237h-263l226 1237h-466l42 228h1191zM858 1568h-140l-281 358h255l130 -146l178 143h298z" />
    <glyph glyph-name="tcaron" unicode="&#x165;" horiz-adv-x="1238" 
d="M841 870h-295l-108 -475q-13 -57 -13 -95q0 -110 124 -110q55 0 180 52v-225q-108 -37 -294 -37q-122 0 -196 76t-74 198q0 40 9 79l121 537h-124l43 201h124l42 219l286 104l-75 -323h293zM1100 917l-63 85q66 50 81 73.5t15 49.5t-34.5 60.5t-34.5 75.5q0 118 117 118
q123 0 123 -139q0 -196 -204 -323z" />
    <glyph glyph-name="Uring" unicode="&#x16e;" horiz-adv-x="1355" 
d="M1217 451q-42 -226 -210 -351t-416 -125q-207 0 -337.5 99.5t-130.5 274.5q0 53 11 113l184 1003h268l-187 -998q-5 -27 -5 -57q0 -99 61 -153t166 -54q134 0 223 73t113 205l183 984h264zM915 1504q-99 0 -173 60t-74 150t74 149.5t173 59.5q100 0 173 -59t73 -150
t-73.5 -150.5t-172.5 -59.5zM918 1802q-51 0 -89 -26t-38 -66q0 -39 38 -65t89 -26t89 26t38 65q0 40 -38 66t-89 26z" />
    <glyph glyph-name="uring" unicode="&#x16f;" horiz-adv-x="1141" 
d="M928 -1h-250l15 78q-134 -97 -336 -97q-138 0 -216.5 79t-78.5 219q0 44 11 103l129 690h254l-127 -680q-8 -43 -8 -73q0 -130 146 -130q119 0 199.5 77.5t100.5 186.5l110 619h251zM689 1285q-99 0 -173 60t-74 150t74 149.5t173 59.5q100 0 173 -59t73 -150
t-73.5 -150.5t-172.5 -59.5zM692 1583q-51 0 -89 -26t-38 -66q0 -39 38 -65t89 -26t89 26t38 65q0 40 -38 66t-89 26z" />
    <glyph glyph-name="Udblacute" unicode="&#x170;" horiz-adv-x="1355" 
d="M1217 451q-42 -226 -210 -351t-416 -125q-207 0 -337.5 99.5t-130.5 274.5q0 53 11 113l184 1003h268l-187 -998q-5 -27 -5 -57q0 -99 61 -153t166 -54q134 0 223 73t113 205l183 984h264zM1173 1585h-215l177 283h286zM803 1585h-215l177 283h286z" />
    <glyph glyph-name="udblacute" unicode="&#x171;" horiz-adv-x="1141" 
d="M928 -1h-250l15 78q-134 -97 -336 -97q-138 0 -216.5 79t-78.5 219q0 44 11 103l129 690h254l-127 -680q-8 -43 -8 -73q0 -130 146 -130q119 0 199.5 77.5t100.5 186.5l110 619h251zM979 1285h-215l177 283h286zM609 1285h-215l177 283h286z" />
    <glyph glyph-name="Zacute" unicode="&#x179;" horiz-adv-x="1252" 
d="M482 228h597l-43 -228h-949v83l793 1154h-602l42 228h928v-83zM874 1585h-216l205 333h284z" />
    <glyph glyph-name="zacute" unicode="&#x17a;" horiz-adv-x="1091" 
d="M447 217h508l-41 -217h-886v85l626 769h-525l41 217h892v-89zM680 1285h-216l205 333h284z" />
    <glyph glyph-name="Zdot" unicode="&#x17b;" horiz-adv-x="1252" 
d="M482 228h597l-43 -228h-949v83l793 1154h-602l42 228h928v-83zM662 1703q0 52 46 84.5t106 32.5q58 0 105.5 -32.5t47.5 -84.5t-46.5 -85t-106.5 -33q-59 0 -105.5 32.5t-46.5 85.5z" />
    <glyph glyph-name="zdot" unicode="&#x17c;" horiz-adv-x="1091" 
d="M447 217h508l-41 -217h-886v85l626 769h-525l41 217h892v-89zM488 1403q0 52 46 84.5t106 32.5q58 0 105.5 -32.5t47.5 -84.5t-46.5 -85t-106.5 -33q-59 0 -105.5 32.5t-46.5 85.5z" />
    <glyph glyph-name="foursuperior" horiz-adv-x="910" 
d="M881 796h-97l-37 -231h-166l37 231h-385l18 110l560 572h83l-87 -532h97zM458 946h185l37 214z" />
    <glyph glyph-name="currency" unicode="&#xa4;" 
d="M987 203l-147 148q-118 -75 -249 -75t-250 75l-147 -148l-126 132l147 144q-73 122 -73 247q0 124 73 246l-147 144l126 132l148 -148q118 75 249 75t249 -74l147 147l127 -132l-147 -144q74 -122 74 -246q0 -125 -74 -247l147 -144zM321 726q0 -113 78 -191.5t191 -78.5
q111 0 190 79t79 191t-78.5 190.5t-190.5 78.5q-113 0 -191 -78.5t-78 -190.5z" />
    </font>
</defs>
</svg>
